<?xml version="1.0" standalone="no"?>
<!DOCTYPE svg PUBLIC "-//W3C//DTD SVG 1.1//EN" "http://www.w3.org/Graphics/SVG/1.1/DTD/svg11.dtd" >
<svg xmlns="http://www.w3.org/2000/svg" xmlns:xlink="http://www.w3.org/1999/xlink" version="1.1">
<metadata>
Created by FontForge 20170731 at Fri Jun 12 14:33:03 2020
 By Aleksey,,,
(c) 2014 - 2019 Adobe Systems Incorporated (http://www.adobe.com/), with Reserved Font Name `Source'.
</metadata>
<defs>
<font id="SourceSerifPro-Regular" horiz-adv-x="0" >
  <font-face 
    font-family="Source Serif Pro"
    font-weight="400"
    font-stretch="normal"
    units-per-em="1000"
    panose-1="2 4 6 3 5 4 5 2 2 4"
    ascent="800"
    descent="-200"
    x-height="475"
    cap-height="669"
    bbox="-240 -258 1138 1002"
    underline-thickness="50"
    underline-position="-125"
    unicode-range="U+0021-2215"
  />
<missing-glyph horiz-adv-x="640" 
d="M80 0v669h480v-669h-480zM174 51h292l-146 234zM141 571v-473l148 236zM351 334l148 -236v473zM174 618l146 -234l146 234h-292z" />
    <glyph glyph-name="f_f" unicode="ff" horiz-adv-x="658" 
d="M36 0v36l79 14q1 40 1.5 80t0.5 80v212h-83v44l84 11q8 83 24.5 132.5t51.5 84.5q31 31 66.5 43t68.5 12q36 0 62.5 -12.5t34.5 -41.5q-1 -19 -17 -32t-44 -13q-19 0 -36.5 8t-35.5 22l-27 22q-3 -2 -6 -4.5t-6 -5.5q-28 -28 -42 -77t-12 -140h206l17 2q7 80 22.5 129.5
t52.5 86.5q32 32 67 44t69 12q35 0 62 -12.5t34 -41.5q-1 -19 -17 -32t-44 -13q-36 0 -72 30l-28 22q-4 -3 -7.5 -6t-6.5 -6q-26 -26 -39.5 -78.5t-11.5 -136.5h138v-53h-136v-212q0 -40 0.5 -79.5t1.5 -79.5l90 -15v-36h-258v36l79 14q1 40 1.5 80t0.5 80v212h-219v-212
q0 -40 0.5 -79.5t1.5 -79.5l89 -15v-36h-257z" />
    <glyph glyph-name="f_i" unicode="fi" horiz-adv-x="617" 
d="M36 0v36l79 14q1 40 1.5 80t0.5 80v212h-83v44l84 11q5 58 14 96t25.5 65.5t41.5 52.5q28 29 72 43.5t90 14.5q65 0 110 -27t45 -73q-4 -16 -17 -27.5t-33 -11.5q-19 0 -34.5 11t-29.5 30l-44 61q-34 -2 -62.5 -15t-48.5 -33q-26 -26 -37.5 -70.5t-9.5 -118.5h228l74 13
l16 -10l-3 -131v-137q0 -33 0.5 -77.5t1.5 -82.5l68 -14v-36h-232v36l75 14q1 38 1.5 82.5t0.5 77.5v51q0 53 -0.5 88t-2.5 73h-225v-212q0 -40 0.5 -79.5t1.5 -79.5l89 -15v-36h-257z" />
    <glyph glyph-name="f_l" unicode="fl" horiz-adv-x="612" 
d="M36 0v36l79 14q1 40 1.5 80t0.5 80v212h-83v44l84 11q5 53 13 90.5t23 66t41 54.5q35 35 77 48t82 13q30 0 58.5 -7t46.5 -21l36 18l14 -8l-4 -142v-379q0 -40 0.5 -79.5t1.5 -80.5l80 -14v-36h-247v36l79 14q1 41 1.5 80.5t0.5 79.5v439q-24 2 -51.5 14.5t-54.5 34.5
l-8 7q-18 -7 -31.5 -16t-27.5 -23q-28 -28 -39 -74.5t-9 -116.5h138v-53h-136v-212q0 -40 0.5 -79.5t1.5 -79.5l89 -15v-36h-257z" />
    <glyph glyph-name="f_f_i" unicode="ffi" horiz-adv-x="920" 
d="M36 0v36l79 14q1 40 1.5 80t0.5 80v212h-83v44l84 11q8 83 24.5 132.5t51.5 84.5q31 31 66.5 43t68.5 12q36 0 62.5 -12.5t34.5 -41.5q-1 -19 -17 -32t-44 -13q-19 0 -36.5 8t-35.5 22l-27 22q-3 -2 -6 -4.5t-6 -5.5q-28 -28 -42 -77t-12 -140h206l16 2q5 58 14 96
t25.5 65.5t41.5 52.5q28 29 72 43.5t90 14.5q65 0 110 -27t45 -73q-4 -16 -17 -27.5t-33 -11.5q-19 0 -34.5 11t-29.5 30l-44 61q-34 -2 -62.5 -15t-48.5 -33q-26 -26 -37.5 -70.5t-9.5 -118.5h228l74 13l16 -10l-3 -131v-137q0 -33 0.5 -77.5t1.5 -82.5l68 -14v-36h-232v36
l75 14q1 38 1.5 82.5t0.5 77.5v51q0 53 -0.5 88t-2.5 73h-225v-212q0 -40 0.5 -79.5t1.5 -79.5l89 -15v-36h-257v36l79 14q1 40 1.5 80t0.5 80v212h-219v-212q0 -40 0.5 -79.5t1.5 -79.5l89 -15v-36h-257z" />
    <glyph glyph-name="f_f_l" unicode="ffl" horiz-adv-x="915" 
d="M36 0v36l79 14q1 40 1.5 80t0.5 80v212h-83v44l84 11q8 83 24.5 132.5t51.5 84.5q31 31 66.5 43t68.5 12q36 0 62.5 -12.5t34.5 -41.5q-1 -19 -17 -32t-44 -13q-19 0 -36.5 8t-35.5 22l-27 22q-3 -2 -6 -4.5t-6 -5.5q-28 -28 -42 -77t-12 -140h206l16 2q5 53 13 90.5
t23 66t41 54.5q35 35 77 48t82 13q30 0 58.5 -7t46.5 -21l36 18l14 -8l-4 -142v-379q0 -40 0.5 -79.5t1.5 -80.5l80 -14v-36h-247v36l79 14q1 41 1.5 80.5t0.5 79.5v439q-24 2 -51.5 14.5t-54.5 34.5l-8 7q-18 -7 -31.5 -16t-27.5 -23q-28 -28 -39 -74.5t-9 -116.5h138v-53
h-136v-212q0 -40 0.5 -79.5t1.5 -79.5l89 -15v-36h-257v36l79 14q1 40 1.5 80t0.5 80v212h-219v-212q0 -40 0.5 -79.5t1.5 -79.5l89 -15v-36h-257z" />
    <glyph glyph-name="f_t" unicode="ft" horiz-adv-x="644" 
d="M36 0v36l79 14q1 40 1.5 80t0.5 80v212h-83v44l85 11q7 80 22.5 129.5t52.5 86.5q32 32 67 44t69 12q35 0 62 -12.5t34 -41.5q-1 -19 -17 -32t-44 -13q-36 0 -72 30l-28 22q-4 -3 -7.5 -6t-6.5 -6q-26 -26 -39.5 -78.5t-11.5 -136.5h217l27 136h59l-5 -136h134v-53h-136
v-310q0 -38 15 -55.5t40 -17.5q17 0 33 7t35 20l23 -26q-39 -53 -118 -53q-52 0 -83 28t-31 86q0 19 0.5 37.5t0.5 47.5v236h-209v-212q0 -40 0.5 -79.5t1.5 -79.5l90 -15v-36h-258z" />
    <glyph glyph-name=".notdef" horiz-adv-x="640" 
d="M80 0v669h480v-669h-480zM174 51h292l-146 234zM141 571v-473l148 236zM351 334l148 -236v473zM174 618l146 -234l146 234h-292z" />
    <glyph glyph-name=".null" 
 />
    <glyph glyph-name="nonmarkingreturn" horiz-adv-x="333" 
 />
    <glyph glyph-name="space" unicode="&#xa0;" horiz-adv-x="233" 
 />
    <glyph glyph-name="space" unicode=" " horiz-adv-x="233" 
 />
    <glyph glyph-name="exclam" unicode="!" horiz-adv-x="289" 
d="M145 -13q-27 0 -46 19.5t-19 45.5t19 45.5t46 19.5t45.5 -19.5t18.5 -45.5t-18.5 -45.5t-45.5 -19.5zM145 684q26 0 41.5 -15t15.5 -48q0 -28 -7 -96.5t-18 -172.5l-14 -137h-37l-13 137q-11 104 -18.5 172.5t-7.5 96.5q0 33 15.5 48t42.5 15z" />
    <glyph glyph-name="quotedbl" unicode="&#x22;" horiz-adv-x="356" 
d="M92 737q24 0 37.5 -15t13.5 -48q0 -15 -2.5 -39t-6.5 -50.5t-7.5 -49.5t-5.5 -35l-11 -71h-37l-11 71q-2 12 -5.5 35t-7.5 49.5t-6.5 50.5t-2.5 39q0 33 14 48t38 15zM264 737q24 0 37.5 -15t13.5 -48q0 -15 -2.5 -39t-6.5 -50.5t-7.5 -49.5t-5.5 -35l-11 -71h-37l-11 71
q-2 12 -5.5 35t-7.5 49.5t-6.5 50.5t-2.5 39q0 33 14 48t38 15z" />
    <glyph glyph-name="numbersign" unicode="#" horiz-adv-x="526" 
d="M175 261h158l20 130h-158zM88 0l28 180h-91v81h103l20 130h-91v82h104l27 177h47l-27 -177h158l27 177h47l-27 -177h89v-82h-102l-20 -130h90v-81h-102l-28 -180h-47l28 180h-158l-28 -180h-47z" />
    <glyph glyph-name="dollar" unicode="$" horiz-adv-x="500" 
d="M238 -115v102q-79 2 -131.5 42t-55.5 104q14 32 46 32q19 0 34.5 -13.5t24.5 -53.5l12 -55q18 -4 36 -5.5t34 -2.5v246l-12 4q-79 28 -123.5 72.5t-44.5 119.5q0 49 23 88.5t64.5 64.5t94.5 28v91h41v-91q68 -6 114 -45.5t50 -98.5q-5 -16 -17.5 -24t-26.5 -8
q-17 0 -34 13.5t-26 53.5l-12 54q-13 3 -25 4.5t-23 2.5v-243l6 -2q101 -35 139 -83.5t38 -110.5q0 -73 -49 -123t-135 -59v-104h-42zM383 150q0 44 -24.5 69.5t-78.5 45.5v-228q48 8 75.5 37t27.5 76zM138 499q0 -45 26.5 -73t75.5 -45v227q-44 -6 -73 -33t-29 -76z" />
    <glyph glyph-name="percent" unicode="%" horiz-adv-x="861" 
d="M220 -25l-31 25l465 669l31 -25zM142 451q0 -71 9.5 -109t25.5 -51.5t33 -13.5q18 0 33 13.5t24 51.5t9 109q0 72 -9 109.5t-24 51t-33 13.5q-17 0 -33 -13.5t-25.5 -51t-9.5 -109.5zM210 659q36 0 67.5 -21.5t51.5 -67.5t20 -119q0 -72 -20 -118t-51.5 -67.5
t-67.5 -21.5t-68 21.5t-52.5 67.5t-20.5 118q0 73 20.5 119t52.5 67.5t68 21.5zM585 198q0 -71 9.5 -109t25.5 -51.5t33 -13.5q18 0 33 13.5t24 51.5t9 109q0 72 -9 109.5t-24 51t-33 13.5q-17 0 -33 -13.5t-25.5 -51t-9.5 -109.5zM653 406q36 0 67.5 -21.5t51.5 -67.5
t20 -119q0 -72 -20 -118t-51.5 -67.5t-67.5 -21.5t-68 21.5t-52.5 67.5t-20.5 118q0 73 20.5 119t52.5 67.5t68 21.5z" />
    <glyph glyph-name="ampersand" unicode="&#x26;" horiz-adv-x="720" 
d="M222 443q14 -18 27 -33q47 32 76.5 67t29.5 78q0 44 -25 69t-62 25q-38 0 -64.5 -26.5t-26.5 -66.5q0 -27 8.5 -52.5t36.5 -60.5zM670 -3q-22 -5 -39 -7.5t-37 -2.5q-40 0 -66 10.5t-51 35.5q-9 11 -18 20t-17 19q-33 -36 -82.5 -60.5t-121.5 -24.5q-62 0 -110 24.5
t-74.5 66t-26.5 91.5q0 68 38 119t113 88q-1 2 -2 3l-2 2q-37 43 -53 82t-16 79q0 66 47 104t117 38q74 0 113 -36t39 -92q0 -52 -35.5 -92t-112.5 -81q16 -18 35 -39t45 -50q30 -33 58 -62.5t57 -61.5q28 47 49 97t34 109l-79 13v40h203v-40l-76 -14q-17 -68 -43 -125
t-61 -109q19 -19 39 -41t43 -46l97 -13zM311 219q-34 41 -59 71t-50 58q-52 -31 -70 -72.5t-18 -79.5q0 -36 17.5 -69.5t51.5 -54.5t82 -21q42 0 81 14t67 39q-28 30 -52.5 58.5t-49.5 56.5z" />
    <glyph glyph-name="quotesingle" unicode="'" horiz-adv-x="183" 
d="M92 737q24 0 37.5 -15t13.5 -48q0 -15 -2.5 -39t-6.5 -50.5t-7.5 -49.5t-5.5 -35l-11 -71h-37l-11 71q-2 12 -5.5 35t-7.5 49.5t-6.5 50.5t-2.5 39q0 33 14 48t38 15z" />
    <glyph glyph-name="parenleft" unicode="(" horiz-adv-x="339" 
d="M160 278q0 -80 14 -149.5t47.5 -141t92.5 -156.5l-26 -23q-106 99 -157 216t-51 254t51 254t157 216l26 -23q-59 -85 -92.5 -156.5t-47.5 -141t-14 -149.5z" />
    <glyph glyph-name="parenright" unicode=")" horiz-adv-x="339" 
d="M179 278q0 80 -14 149.5t-47.5 141t-92.5 156.5l26 23q106 -99 157 -216t51 -254t-51 -254t-157 -216l-26 23q59 85 92.5 156.5t47.5 141t14 149.5z" />
    <glyph glyph-name="asterisk" unicode="*" horiz-adv-x="439" 
d="M220 747q15 0 25.5 -8.5t10.5 -27.5q0 -13 -5 -41.5t-10 -62.5l-7 -47l43 21q38 18 66.5 32t44.5 14q14 0 23 -10t9 -25q0 -28 -35 -35.5t-94 -16.5l-48 -8l34 -35l58 -58t23 -44q0 -14 -10 -23t-23 -9q-24 0 -40.5 30.5t-42.5 78.5l-22 42l-23 -42q-25 -49 -42 -79
t-41 -30q-12 0 -22.5 9t-10.5 23q0 21 23.5 44t57.5 58l34 35l-47 8q-60 9 -94.5 16.5t-34.5 35.5q0 15 9 25t24 10q17 0 44.5 -14t64.5 -32l43 -21l-7 47q-5 34 -9 62t-4 42q0 19 9.5 27.5t25.5 8.5z" />
    <glyph glyph-name="plus" unicode="+" horiz-adv-x="531" 
d="M235 77v224h-206v57h206v219h61v-219h206v-57h-206v-224h-61z" />
    <glyph glyph-name="comma" unicode="," horiz-adv-x="300" 
d="M213 29q0 -60 -28.5 -111t-72.5 -87.5t-92 -54.5l-14 34q51 26 90 63t57 93l-37 29q-20 16 -29 34.5t-9 37.5q0 26 15.5 44.5t46.5 18.5q14 0 28.5 -6t33.5 -23q6 -19 8.5 -36.5t2.5 -35.5z" />
    <glyph glyph-name="hyphen" unicode="&#x2010;" horiz-adv-x="312" 
d="M40 218v66h232v-66h-232z" />
    <glyph glyph-name="hyphen" unicode="&#xad;" horiz-adv-x="312" 
d="M40 218v66h232v-66h-232z" />
    <glyph glyph-name="hyphen" unicode="-" horiz-adv-x="312" 
d="M40 218v66h232v-66h-232z" />
    <glyph glyph-name="period" unicode="." horiz-adv-x="300" 
d="M150 -13q-30 0 -50.5 21t-20.5 50q0 30 20.5 51t50.5 21t50.5 -21t20.5 -51q0 -29 -20.5 -50t-50.5 -21z" />
    <glyph glyph-name="slash" unicode="/" horiz-adv-x="330" 
d="M2 -160l267 870h59l-267 -870h-59z" />
    <glyph glyph-name="zero" unicode="0" horiz-adv-x="500" 
d="M133 322q0 -116 16.5 -179t43.5 -87t58 -24q30 0 56.5 24.5t43 87.5t16.5 178q0 117 -16.5 180t-43 87.5t-56.5 24.5q-23 0 -44.5 -13t-38 -45t-26 -89t-9.5 -145zM251 659q53 0 100.5 -32.5t78 -106.5t30.5 -198q0 -123 -30.5 -196.5t-78 -106t-100.5 -32.5t-101.5 32.5
t-78.5 106t-30 196.5q0 124 30 198t78.5 106.5t101.5 32.5z" />
    <glyph glyph-name="one" unicode="1" horiz-adv-x="500" 
d="M85 601l206 53l14 -10l-4 -143v-290q0 -37 0.5 -75t1.5 -76l142 -24v-36h-371v36l141 24q1 38 1.5 76t0.5 75v360l-132 -11v41z" />
    <glyph glyph-name="two" unicode="2" horiz-adv-x="500" 
d="M49 0v65q40 39 77.5 77.5t69.5 72.5q75 79 110 143t35 122q0 62 -32.5 98t-87.5 36q-10 0 -22.5 -1t-26.5 -4l-19 -69q-10 -37 -23.5 -52.5t-34.5 -15.5q-33 0 -51 32q6 53 35 87.5t73 51t94 16.5q97 0 141 -47.5t44 -122.5q0 -44 -17.5 -85.5t-60.5 -93t-120 -125.5
q-20 -20 -48.5 -47t-59.5 -56h335v-82h-411z" />
    <glyph glyph-name="three" unicode="3" horiz-adv-x="500" 
d="M170 365h40q68 0 105.5 35t37.5 99q0 55 -31.5 85t-90.5 30q-10 0 -21 -1t-25 -3l-13 -50q-8 -31 -20 -46.5t-38 -15.5q-16 0 -29 8t-19 27q13 63 63 94.5t119 31.5q88 0 140 -43.5t52 -113.5q0 -54 -34.5 -96.5t-96.5 -64.5q77 -15 114 -58t37 -105q0 -54 -28 -97
t-78 -68.5t-118 -25.5q-73 0 -125.5 33.5t-66.5 108.5q17 33 51 33q26 0 37.5 -17t21.5 -55l13 -52q17 -4 31 -5t25 -1q74 0 111 38.5t37 105.5q0 65 -38 102t-115 37h-48v50z" />
    <glyph glyph-name="four" unicode="4" horiz-adv-x="500" 
d="M484 193h-105v-193h-83v193h-272v53l297 409h58v-399h105v-63zM84 256h212v295z" />
    <glyph glyph-name="five" unicode="5" horiz-adv-x="500" 
d="M458 201q0 -64 -29 -112t-81.5 -75t-122.5 -27q-155 0 -187 141q13 34 51 34q23 0 35.5 -14t22.5 -54l14 -54q15 -4 29.5 -6t27.5 -2q74 0 112 43.5t38 115.5q0 75 -42 114.5t-114 39.5q-43 0 -92 -11l-28 8l21 304h327v-82h-283l-12 -170q45 12 94 12q98 0 158.5 -52.5
t60.5 -152.5z" />
    <glyph glyph-name="six" unicode="6" horiz-adv-x="500" 
d="M254 32q50 0 82 43.5t32 121.5q0 70 -31.5 104.5t-83.5 34.5q-30 0 -60.5 -10t-59.5 -34q-1 -10 -1.5 -20.5t-0.5 -21.5q0 -114 34 -166t89 -52zM457 199q0 -63 -29 -111t-75 -74.5t-97 -26.5q-100 0 -158 73.5t-58 201.5q0 100 44.5 185t130.5 141.5t208 70.5l6 -32
q-136 -35 -205 -111t-86 -181q64 62 145 62q55 0 93.5 -26t59.5 -70.5t21 -101.5z" />
    <glyph glyph-name="seven" unicode="7" horiz-adv-x="500" 
d="M133 10l264 554h-346v82h413v-51l-238 -595h-83z" />
    <glyph glyph-name="eight" unicode="8" horiz-adv-x="500" 
d="M145 514q0 -39 25 -75t99 -74q45 35 63 66t18 72q0 45 -26 78t-73 33q-43 0 -74.5 -27t-31.5 -73zM44 149q0 54 36 94t105 74q-63 35 -91 79t-28 96q0 53 25 90t67.5 57t94.5 20q79 0 125.5 -43t46.5 -111q0 -35 -25 -76.5t-93 -81.5q74 -37 111 -80t37 -109
q0 -50 -27 -89t-73 -60.5t-104 -21.5q-91 0 -149 41t-58 121zM127 155q0 -53 35.5 -88.5t90.5 -35.5q53 0 85.5 35t32.5 85q0 44 -32.5 76t-116.5 71q-47 -29 -71 -61t-24 -82z" />
    <glyph glyph-name="nine" unicode="9" horiz-adv-x="500" 
d="M118 461q0 -76 38.5 -110.5t93.5 -34.5q63 0 109 40q1 7 1 13v13q0 122 -33.5 177t-88.5 55q-49 0 -84.5 -38.5t-35.5 -114.5zM450 399q0 -95 -37 -179.5t-117 -147t-210 -92.5l-10 38q136 45 200.5 114.5t78.5 173.5q-51 -50 -132 -50q-53 0 -97.5 23.5t-70.5 67.5
t-26 105q0 62 27 108.5t75 72.5t111 26q98 0 153 -70.5t55 -189.5z" />
    <glyph glyph-name="colon" unicode=":" horiz-adv-x="300" 
d="M150 350q-30 0 -50.5 21t-20.5 50q0 30 20.5 51t50.5 21t50.5 -21t20.5 -51q0 -29 -20.5 -50t-50.5 -21zM150 -13q-30 0 -50.5 21t-20.5 50q0 30 20.5 51t50.5 21t50.5 -21t20.5 -51q0 -29 -20.5 -50t-50.5 -21z" />
    <glyph glyph-name="semicolon" unicode=";" horiz-adv-x="300" 
d="M150 350q-30 0 -50.5 21t-20.5 50q0 30 20.5 51t50.5 21t50.5 -21t20.5 -51q0 -29 -20.5 -50t-50.5 -21zM213 29q0 -60 -28.5 -111t-72.5 -87.5t-92 -54.5l-14 34q51 26 90 63t57 93l-37 29q-20 16 -29 34.5t-9 37.5q0 26 15.5 44.5t46.5 18.5q14 0 28.5 -6t33.5 -23
q6 -19 8.5 -36.5t2.5 -35.5z" />
    <glyph glyph-name="less" unicode="&#x3c;" horiz-adv-x="531" 
d="M57 306v47l387 225l30 -54l-347 -194l347 -195l-30 -54z" />
    <glyph glyph-name="equal" unicode="=" horiz-adv-x="531" 
d="M502 201h-473v57h473v-57zM502 401h-473v57h473v-57z" />
    <glyph glyph-name="greater" unicode="&#x3e;" horiz-adv-x="531" 
d="M474 353v-47l-387 -225l-30 54l347 195l-347 194l30 54z" />
    <glyph glyph-name="question" unicode="?" horiz-adv-x="416" 
d="M149 -13q-27 0 -45.5 19.5t-18.5 45.5t18.5 45.5t45.5 19.5t46 -19.5t19 -45.5t-19 -45.5t-46 -19.5zM350 461q0 -94 -100 -126l-34 -12q-31 -10 -39 -20t-8 -35v-55h-39l-12 42q-9 29 -12.5 45t-3.5 25q0 23 18 38t62 28l57 18q56 19 56 69q0 19 -7 37.5t-19 36.5
l-131 23q-44 8 -58 21.5t-14 32.5q0 23 14 35.5t41 19.5q32 -3 71 -20t75 -46t59.5 -69t23.5 -88z" />
    <glyph glyph-name="at" unicode="@" horiz-adv-x="835" 
d="M301 202q0 -96 69 -96q22 0 45.5 11t57.5 41l45 237q-15 18 -30 25.5t-31 7.5q-32 0 -68.5 -27.5t-62 -78t-25.5 -120.5zM584 47q-46 0 -73.5 23.5t-33.5 58.5q-31 -37 -65 -59.5t-73 -22.5q-41 0 -74.5 30.5t-33.5 99.5q0 56 20.5 109t54.5 95.5t75.5 68t83.5 25.5
q37 0 68 -25l47 24l19 -16l-57 -286q-7 -37 7 -57.5t47 -20.5q34 0 67.5 24.5t55.5 77t22 137.5q0 91 -35.5 154.5t-97 97.5t-139.5 34q-82 0 -150.5 -33t-118 -90t-76.5 -130t-27 -153q0 -82 26 -143.5t70.5 -102.5t102.5 -61t122 -20q89 0 154 31l13 -30
q-43 -22 -93.5 -32t-94.5 -10q-100 0 -182 40.5t-130.5 120.5t-48.5 198q0 96 33.5 179t93.5 145t139.5 97t172.5 35q102 0 174.5 -43t111.5 -118.5t39 -174.5q0 -72 -21 -124.5t-54.5 -86.5t-70.5 -50t-70 -16z" />
    <glyph glyph-name="A" unicode="A" horiz-adv-x="664" 
d="M309 562l-101 -298h201zM5 0v41l84 13l213 620h63l213 -624l75 -9v-41h-272v41l98 12l-55 164h-232l-56 -163l98 -13v-41h-229z" />
    <glyph glyph-name="B" unicode="B" horiz-adv-x="629" 
d="M288 323h-55q0 -79 0.5 -145.5t1.5 -130.5h61q96 0 143 35t47 101q0 70 -47 105t-151 35zM304 623h-69q-1 -64 -1.5 -129.5t-0.5 -124.5h52q91 0 132 31t41 99t-38.5 96t-115.5 28zM44 628v41h290q104 0 161 -46t57 -117q0 -53 -36 -97t-119 -61q100 -14 144.5 -59
t44.5 -106q0 -45 -26.5 -87t-85.5 -69t-155 -27h-275v41l92 11q2 63 2 128v130v49v129.5t-2 128.5z" />
    <glyph glyph-name="C" unicode="C" horiz-adv-x="631" 
d="M386 -15q-101 0 -177.5 44.5t-119 123.5t-42.5 182q0 76 25.5 139.5t71 110.5t107 73t134.5 26q41 0 92 -9.5t101 -38.5l4 -145h-62l-20 116q-27 15 -52.5 21t-49.5 6q-67 0 -122 -34t-87.5 -100.5t-32.5 -164.5t30 -165t83.5 -101t121.5 -34q29 0 59.5 6.5t59.5 20.5
l20 116h62l-4 -145q-46 -25 -97.5 -36.5t-104.5 -11.5z" />
    <glyph glyph-name="D" unicode="D" horiz-adv-x="710" 
d="M233 322q0 -73 0.5 -141t1.5 -134h79q116 0 178 75.5t62 211.5q0 141 -61 215t-170 74h-88q-1 -64 -1.5 -130.5t-0.5 -133.5v-37zM44 628v41h295q96 0 169 -38.5t114 -113t41 -183.5q0 -108 -45 -182.5t-122.5 -113t-175.5 -38.5h-276v41l92 11q2 64 2 130.5v139.5v37
v129.5t-2 128.5z" />
    <glyph glyph-name="E" unicode="E" horiz-adv-x="603" 
d="M44 628v41h498l7 -177h-57l-22 127h-235q-1 -64 -1.5 -128t-0.5 -126h147l14 95h46v-236h-46l-13 94h-148q0 -75 0.5 -140.5t1.5 -127.5h255l22 128h57l-7 -178h-518v41l92 11q2 63 2 128v130v49v129.5t-2 128.5z" />
    <glyph glyph-name="F" unicode="F" horiz-adv-x="579" 
d="M44 628v41h498l7 -177h-57l-22 127h-235q-1 -64 -1.5 -128t-0.5 -126h155l14 95h46v-246h-46l-14 104h-155q0 -74 0.5 -139t1.5 -127l93 -11v-41h-284v41l92 11q2 63 2 128v130v49v129.5t-2 128.5z" />
    <glyph glyph-name="G" unicode="G" horiz-adv-x="682" 
d="M384 -15q-100 0 -176 45.5t-118.5 124.5t-42.5 180t43 179.5t119.5 124t178.5 45.5q62 0 110.5 -11.5t90.5 -35.5l4 -146h-62l-20 114q-52 29 -114 29q-69 0 -123.5 -35t-86 -101.5t-31.5 -162.5q0 -143 66 -221t181 -78q57 0 107 20v32q0 45 -0.5 90.5t-1.5 90.5l-104 9
v40h263v-40l-61 -6q-1 -45 -1.5 -91t-0.5 -93v-44q-52 -27 -105 -43t-115 -16z" />
    <glyph glyph-name="H" unicode="H" horiz-adv-x="789" 
d="M462 628v41h282v-41l-92 -11q-1 -63 -1.5 -128t-0.5 -130v-49q0 -64 0.5 -128.5t1.5 -129.5l92 -11v-41h-282v41l92 11q2 64 2 130.5v136.5h-323q0 -76 0.5 -141t1.5 -127l91 -10v-41h-282v41l92 11q2 63 2 128v130v49v129.5t-2 128.5l-92 11v41h282v-41l-91 -10
q-1 -64 -1.5 -128t-0.5 -124h323v128t-2 123z" />
    <glyph glyph-name="I" unicode="I" horiz-adv-x="371" 
d="M44 628v41h283v-41l-92 -11q-1 -63 -1.5 -128t-0.5 -130v-49q0 -64 0.5 -128.5t1.5 -129.5l92 -11v-41h-283v41l92 11q2 63 2 128v130v49v129.5t-2 128.5z" />
    <glyph glyph-name="J" unicode="J" horiz-adv-x="374" 
d="M47 628v41h293v-41l-92 -11q-1 -63 -1.5 -127.5t-0.5 -129.5v-156q0 -76 -2.5 -127t-9.5 -85t-19.5 -57t-33.5 -44q-25 -25 -60.5 -39.5t-76.5 -14.5q-28 0 -53.5 10.5t-33.5 38.5q5 28 21.5 39t40.5 11q34 0 75 -31l25 -20q22 21 30.5 50t8.5 72q0 18 -0.5 44t-1.5 68
t-2 107t-2.5 161t-2.5 230z" />
    <glyph glyph-name="K" unicode="K" horiz-adv-x="667" 
d="M44 628v41h282v-41l-95 -11q-1 -64 -1.5 -128.5t-0.5 -129.5v-63l260 318l-72 14v41h230v-41l-97 -13l-167 -201l202 -363l77 -10v-41h-257v41l82 10l-159 297l-99 -119q0 -40 0.5 -85t1.5 -92l95 -11v-41h-282v41l92 11q2 63 2 128v130v49v129.5t-2 128.5z" />
    <glyph glyph-name="L" unicode="L" horiz-adv-x="596" 
d="M44 628v41h283v-41l-92 -11q-1 -64 -1.5 -128.5t-0.5 -129.5v-69q0 -53 0.5 -114.5t1.5 -125.5h227l29 138h61l-10 -188h-498v41l92 11q2 65 2 129v128v50v130t-2 128z" />
    <glyph glyph-name="M" unicode="M" horiz-adv-x="902" 
d="M39 0v41l90 13v563l-90 11v41h185l224 -550l212 550h197v-41l-92 -11q-1 -63 -1.5 -128t-0.5 -130v-49q0 -64 0.5 -128.5t1.5 -129.5l92 -11v-41h-272v41l84 11q2 63 2 128v129v249l-217 -558h-50l-229 558l6 -189v-315l82 -13v-41h-224z" />
    <glyph glyph-name="N" unicode="N" horiz-adv-x="735" 
d="M454 628v41h241v-41l-85 -13v-622h-35l-400 545v-483l106 -14v-41h-242v41l85 12v555l-9 12l-71 8v41h154l361 -496v442z" />
    <glyph glyph-name="O" unicode="O" horiz-adv-x="707" 
d="M354 -15q-58 0 -113 22.5t-99 66.5t-69.5 109.5t-25.5 151.5q0 82 26 147t69.5 110t98.5 68.5t113 23.5t112.5 -22.5t98 -66.5t69.5 -109t26 -151q0 -82 -25.5 -147t-69 -110.5t-98.5 -69t-113 -23.5zM354 35q52 0 89.5 25.5t61 68t34.5 96t11 110.5q0 56 -11 109.5
t-34.5 96.5t-61 68t-89.5 25t-89.5 -25t-61.5 -68t-35.5 -96.5t-11.5 -109.5q0 -57 11.5 -110.5t35.5 -96t61.5 -68t89.5 -25.5z" />
    <glyph glyph-name="P" unicode="P" horiz-adv-x="589" 
d="M295 623h-60q-1 -64 -1.5 -130.5t-0.5 -133.5v-48h66q91 0 130 44.5t39 114.5q0 73 -41.5 113t-131.5 40zM44 628v41h269q127 0 190.5 -55.5t63.5 -143.5q0 -56 -28 -103t-89.5 -75t-164.5 -28h-52q0 -54 0.5 -106t1.5 -106l93 -11v-41h-284v41l92 11q2 63 2 128v130v49
v129.5t-2 128.5z" />
    <glyph glyph-name="Q" unicode="Q" horiz-adv-x="707" 
d="M354 35q52 0 89.5 25.5t61 68t34.5 96t11 110.5q0 56 -11 109.5t-34.5 96.5t-61 68t-89.5 25t-89.5 -25t-61.5 -68t-35.5 -96.5t-11.5 -109.5q0 -57 11.5 -110.5t35.5 -96t61.5 -68t89.5 -25.5zM500 -216q-63 0 -107.5 29t-67.5 76t-23 101q-68 12 -126 55t-93.5 115.5
t-35.5 174.5q0 82 26 147t69.5 110t98.5 68.5t113 23.5t112.5 -22.5t98 -66.5t69.5 -109t26 -151q0 -100 -37 -174t-97 -118t-130 -55q2 -71 39 -109.5t99 -38.5q15 0 34.5 2.5t43.5 9.5l11 -36q-25 -16 -58.5 -24t-64.5 -8z" />
    <glyph glyph-name="R" unicode="R" horiz-adv-x="651" 
d="M321 623h-86q-1 -66 -1.5 -131.5t-0.5 -136.5h77q81 0 119.5 39t38.5 99q0 63 -35 96.5t-112 33.5zM44 628v41h280q115 0 179 -46t64 -129q0 -58 -42 -106t-126 -63q44 -9 72.5 -38.5t45.5 -88.5l43 -148l77 -9v-41q-15 -4 -33.5 -7t-41.5 -3q-47 0 -70.5 14t-32.5 50
l-40 160q-9 41 -26 61.5t-43.5 27.5t-67.5 7h-49q0 -72 0.5 -135t1.5 -123l92 -11v-41h-283v41l92 11q2 63 2 128v130v49v129.5t-2 128.5z" />
    <glyph glyph-name="S" unicode="S" horiz-adv-x="512" 
d="M235 -15q-56 0 -108 15.5t-87 37.5l6 140h62l20 -118q23 -13 47.5 -19t56.5 -6q71 0 113 31.5t42 89.5q0 48 -29.5 74.5t-93.5 51.5l-39 16q-77 30 -124.5 77.5t-47.5 123.5q0 58 29.5 99t80.5 63.5t115 22.5q50 0 91 -14t73 -38l-6 -131h-61l-21 113q-37 20 -82 20
q-57 0 -96 -28.5t-39 -84.5q0 -46 29.5 -76t83.5 -51l40 -15q98 -38 140 -85.5t42 -118.5q0 -59 -30.5 -101.5t-83.5 -65.5t-123 -23z" />
    <glyph glyph-name="T" unicode="T" horiz-adv-x="604" 
d="M20 491l8 178h548l8 -178h-58l-22 128h-153q-1 -64 -1.5 -129t-0.5 -131v-49q0 -64 0.5 -128.5t1.5 -129.5l102 -11v-41h-302v41l102 11q2 64 2 128.5v129.5v49v130t-2 130h-153l-22 -128h-58z" />
    <glyph glyph-name="U" unicode="U" horiz-adv-x="727" 
d="M453 628v41h240v-41l-87 -11v-343q0 -105 -31 -168.5t-85 -92t-123 -28.5q-72 0 -127 28t-85.5 87t-30.5 152v108v129.5t-2 128.5l-83 10v41h283v-41l-102 -12q-1 -63 -1.5 -127t-0.5 -129v-79q0 -85 20.5 -134.5t57.5 -70t88 -20.5q85 0 128 54.5t43 187.5v317z" />
    <glyph glyph-name="V" unicode="V" horiz-adv-x="674" 
d="M15 628v41h273v-45l-96 -9l168 -479l162 478l-88 10v45h231v-41l-87 -12l-211 -623h-44l-233 626z" />
    <glyph glyph-name="W" unicode="W" horiz-adv-x="962" 
d="M726 628v41h227v-41l-84 -12l-169 -623h-43l-173 518l-163 -518h-43l-180 625l-83 10v41h272v-41l-92 -11l123 -459l152 458l-100 12v41h272v-41l-101 -12l149 -463l127 462z" />
    <glyph glyph-name="X" unicode="X" horiz-adv-x="648" 
d="M19 628v41h281v-41l-88 -10l128 -214l133 212l-85 12v41h229v-41l-88 -11l-164 -254l188 -312l86 -10v-41h-283v41l92 11l-140 232l-147 -232l78 -11v-41h-229v41l95 12l179 271l-177 294z" />
    <glyph glyph-name="Y" unicode="Y" horiz-adv-x="633" 
d="M15 628v41h282v-41l-95 -11l139 -303l143 302l-90 12v41h229v-41l-88 -13l-170 -352q0 -58 0.5 -110.5t1.5 -100.5l102 -11v-41h-302v41l102 11q2 47 2 98v109l-177 360z" />
    <glyph glyph-name="Z" unicode="Z" horiz-adv-x="551" 
d="M20 0v36l378 583h-280l-27 -128h-61l8 178h471v-35l-377 -584h311l27 128h61l-8 -178h-503z" />
    <glyph glyph-name="bracketleft" unicode="[" horiz-adv-x="320" 
d="M103 158v240q0 79 -0.5 158.5t-2.5 158.5h191v-41l-113 -13q-1 -64 -1.5 -130.5t-0.5 -132.5v-240q0 -65 0.5 -131.5t1.5 -131.5l113 -13v-41h-191q2 77 2.5 157t0.5 160z" />
    <glyph glyph-name="backslash" unicode="\" horiz-adv-x="330" 
d="M328 -160h-59l-267 870h59z" />
    <glyph glyph-name="bracketright" unicode="]" horiz-adv-x="320" 
d="M217 398v-240q0 -79 0.5 -158.5t2.5 -158.5h-191v41l113 13q2 65 2 131v132v240v131.5t-2 131.5l-113 13v41h191q-2 -77 -2.5 -157t-0.5 -160z" />
    <glyph glyph-name="asciicircum" unicode="^" horiz-adv-x="531" 
d="M88 242l147 239h64l147 -239l-45 -34l-134 213l-134 -213z" />
    <glyph glyph-name="underscore" unicode="_" horiz-adv-x="512" 
d="M40 -66v66h432v-66h-432z" />
    <glyph glyph-name="grave" unicode="`" horiz-adv-x="400" 
d="M256 576l-26 -19q-31 27 -60.5 53.5t-60.5 54.5q-21 20 -27.5 32.5t-6.5 22.5q0 20 11.5 29t26.5 9q14 0 27 -9t27 -32q24 -36 45.5 -71t43.5 -70z" />
    <glyph glyph-name="a" unicode="a" horiz-adv-x="509" 
d="M416 -10q-36 0 -60 21t-30 56q-41 -40 -72 -60t-75 -20q-55 0 -94.5 31.5t-39.5 93.5q0 29 13.5 54t49.5 49t103 48q23 8 53 17t60 16v25q0 73 -22 97t-72 24q-11 0 -24.5 -1t-29.5 -5l-19 -65q-14 -48 -52 -48q-42 0 -47 41q14 57 66.5 90.5t128.5 33.5q79 0 117 -39.5
t38 -134.5v-213q0 -32 10 -45.5t26 -13.5q13 0 22 6t17 16l20 -22q-18 -29 -39.5 -40.5t-47.5 -11.5zM134 127q0 -40 23 -57t57 -17q15 0 28.5 4t32.5 15.5t49 33.5v153q-26 -7 -51 -15.5t-41 -14.5q-43 -17 -64 -35t-27.5 -35t-6.5 -32z" />
    <glyph glyph-name="b" unicode="b" horiz-adv-x="577" 
d="M30 0v36l75 13q1 38 1.5 82.5t0.5 78.5v439l-82 10v35l153 45l14 -8l-4 -142v-178q36 40 74.5 58.5t79.5 18.5q53 0 96 -29t68.5 -84t25.5 -133q0 -77 -27 -134.5t-73.5 -89t-105.5 -31.5q-35 0 -70 15t-68 56l-8 -68zM315 431q-23 0 -53 -12t-71 -46v-274q31 -29 61 -42
t58 -13q53 0 92.5 46.5t39.5 143.5q0 96 -35.5 146.5t-91.5 50.5z" />
    <glyph glyph-name="c" unicode="c" horiz-adv-x="488" 
d="M267 -13q-103 0 -164 67t-61 182q0 79 32.5 135.5t85.5 86.5t113 30q45 0 83 -17t63 -46.5t31 -66.5q-7 -38 -46 -38q-25 0 -37.5 13.5t-17.5 34.5l-18 66q-14 5 -27.5 6.5t-26.5 1.5q-64 0 -105.5 -50t-41.5 -146q0 -94 45 -144t115 -50q43 0 79 19.5t59 56.5l25 -13
q-21 -62 -68 -95t-118 -33z" />
    <glyph glyph-name="d" unicode="d" horiz-adv-x="567" 
d="M135 235q0 -98 39.5 -144.5t99.5 -46.5q33 0 58.5 13.5t53.5 44.5v277q-34 30 -61 41t-52 11q-37 0 -68.5 -20.5t-50.5 -64t-19 -111.5zM396 -10l-7 69q-26 -34 -59.5 -53t-80.5 -19q-61 0 -107 31t-71.5 86.5t-25.5 128.5q0 77 28 134t76 89t109 32q35 0 67.5 -14
t63.5 -51v226l-85 10v35l156 45l14 -8l-4 -142v-541l81 -12v-36z" />
    <glyph glyph-name="e" unicode="e" horiz-adv-x="510" 
d="M269 442q-28 0 -56.5 -16t-49 -51t-26.5 -93h182q36 0 47.5 15t11.5 37q0 29 -14.5 53.5t-39 39.5t-55.5 15zM268 -13q-101 0 -162 65.5t-61 180.5q0 77 31.5 134t84 89t114.5 32q52 0 94 -23t67 -65.5t25 -103.5q0 -17 -2 -31.5t-5 -24.5h-319q2 -92 46 -140t116 -48
q48 0 80 19.5t59 50.5l24 -19q-28 -53 -76 -84.5t-116 -31.5z" />
    <glyph glyph-name="f" unicode="f" horiz-adv-x="354" 
d="M36 0v36l79 14q1 40 1.5 80t0.5 80v212h-83v44l85 11q7 80 22.5 129.5t52.5 86.5q32 32 67 44t69 12q35 0 62 -12.5t34 -41.5q-1 -19 -17 -32t-44 -13q-36 0 -72 30l-28 22q-4 -3 -7.5 -6t-6.5 -6q-26 -26 -39.5 -78.5t-11.5 -136.5h138v-53h-136v-212q0 -40 0.5 -79.5
t1.5 -79.5l90 -15v-36h-258z" />
    <glyph glyph-name="g" unicode="g" horiz-adv-x="518" 
d="M237 200q48 0 75 36t27 91q0 53 -25.5 86.5t-72.5 33.5t-74 -34.5t-27 -89.5t25.5 -89t71.5 -34zM239 160q-39 0 -74 11q-25 -32 -25 -64q0 -20 11.5 -32t46.5 -12h131q83 0 122 -34t39 -95q0 -43 -27.5 -83t-82.5 -65t-137 -25q-109 0 -158 34t-49 87q0 32 21.5 59.5
t76.5 54.5q-66 18 -66 76q0 24 15.5 50t52.5 61q-36 20 -56.5 55t-20.5 86q0 79 51.5 121.5t129.5 42.5q79 0 127 -39l113 39l15 -10v-63h-98q23 -37 23 -91q0 -79 -51.5 -121.5t-129.5 -42.5zM118 -102q0 -49 35 -70t94 -21q82 0 125 29.5t43 71.5q0 33 -23 55.5t-77 22.5
h-117q-10 0 -20.5 0.5t-20.5 1.5q-21 -22 -30 -43.5t-9 -46.5z" />
    <glyph glyph-name="h" unicode="h" horiz-adv-x="601" 
d="M30 0v36l75 14q1 38 1.5 82.5t0.5 77.5v439l-82 10v35l153 45l14 -8l-4 -142v-193q37 41 86 66.5t97 25.5q65 0 96.5 -43.5t31.5 -141.5v-93q0 -34 0.5 -78t1.5 -82l70 -14v-36h-232v36l73 13q1 38 1.5 82.5t0.5 78.5v85q0 69 -19 95t-63 26q-37 0 -70 -15t-71 -50v-141
q0 -33 0.5 -77.5t1.5 -82.5l69 -14v-36h-232z" />
    <glyph glyph-name="i" unicode="i" horiz-adv-x="298" 
d="M35 0v36l75 14q1 38 1.5 82.5t0.5 77.5v47q0 41 -0.5 68.5t-2.5 57.5l-80 9v35l154 61l15 -10l-3 -136v-132q0 -33 0.5 -77.5t1.5 -82.5l70 -14v-36h-232zM153 598q-28 0 -47.5 18t-19.5 46q0 29 19.5 46.5t47.5 17.5t47.5 -17.5t19.5 -46.5q0 -28 -19.5 -46t-47.5 -18z
" />
    <glyph glyph-name="j" unicode="j" horiz-adv-x="277" 
d="M6 -249q-45 0 -66.5 19t-22.5 38q13 41 59 41q20 0 38 -7.5t37 -22.5l23 -17q11 11 16 27q12 32 16.5 96.5t4.5 176.5v155q0 41 -0.5 68.5t-2.5 57.5l-79 9v35l151 61l15 -10l-3 -136v-242q0 -81 -4 -137t-17.5 -93.5t-40.5 -64.5q-26 -26 -53 -40t-71 -14zM152 598
q-28 0 -47.5 18t-19.5 46q0 29 19.5 46.5t47.5 17.5q29 0 48.5 -17.5t19.5 -46.5q0 -28 -19.5 -46t-48.5 -18z" />
    <glyph glyph-name="k" unicode="k" horiz-adv-x="547" 
d="M25 0v36l80 14q1 40 1.5 80.5t0.5 79.5v439l-82 10v35l156 45l14 -8l-4 -142v-349l171 178l-74 18v39h233v-39l-94 -14l-110 -113l164 -261l66 -12v-36h-136l-154 248l-66 -68q0 -32 0.5 -65t1.5 -65l80 -14v-36h-248z" />
    <glyph glyph-name="l" unicode="l" horiz-adv-x="298" 
d="M25 0v36l80 14q1 41 1.5 80.5t0.5 79.5v439l-82 10v35l156 45l14 -8l-4 -142v-379q0 -40 0.5 -80t1.5 -80l80 -14v-36h-248z" />
    <glyph glyph-name="m" unicode="m" horiz-adv-x="901" 
d="M40 0v36l74 14q1 38 1.5 82t0.5 78v48q0 41 -0.5 68t-2.5 57l-79 9v35l140 61l15 -10l8 -81q35 40 82 65.5t93 25.5q47 0 76.5 -22t42.5 -72q38 47 85 70.5t96 23.5q61 0 94.5 -41t33.5 -134v-103q0 -34 0.5 -78t1.5 -82l70 -14v-36h-232v36l74 14q1 37 1.5 81.5
t0.5 78.5v87q0 70 -20 94.5t-64 24.5q-31 0 -63.5 -14t-70.5 -49q1 -11 1.5 -23.5t0.5 -26.5v-93q0 -34 0.5 -78t1.5 -82l70 -14v-36h-232v36l74 14q1 37 1.5 81.5t0.5 78.5v85q0 68 -19 94.5t-63 26.5q-34 0 -65 -14t-68 -46v-146q0 -33 0.5 -77.5t1.5 -82.5l69 -14v-36
h-232z" />
    <glyph glyph-name="n" unicode="n" horiz-adv-x="606" 
d="M40 0v36l74 14q1 38 1.5 82t0.5 78v48q0 41 -0.5 68t-2.5 57l-79 9v35l140 61l15 -10l8 -80q37 40 85 65t94 25q65 0 96.5 -43.5t31.5 -141.5v-93q0 -34 0.5 -78t1.5 -82l70 -14v-36h-232v36l74 14q1 37 1.5 81.5t0.5 78.5v85q0 69 -19.5 95t-63.5 26q-34 0 -66 -14
t-70 -46v-146q0 -33 0.5 -77.5t1.5 -82.5l69 -14v-36h-232z" />
    <glyph glyph-name="o" unicode="o" horiz-adv-x="549" 
d="M274 -13q-58 0 -110.5 27.5t-85.5 83t-33 137.5q0 83 33 139.5t85.5 85t110.5 28.5t110.5 -28.5t86 -85t33.5 -139.5q0 -82 -33.5 -137.5t-86 -83t-110.5 -27.5zM274 32q65 0 100 51.5t35 151.5q0 101 -35 154t-100 53t-99.5 -53t-34.5 -154q0 -100 34.5 -151.5
t99.5 -51.5z" />
    <glyph glyph-name="p" unicode="p" horiz-adv-x="583" 
d="M35 -239v35l80 14q1 41 1.5 81.5t0.5 80.5v286q0 41 -0.5 68t-2.5 57l-79 9v35l140 61l15 -10l6 -65q71 75 151 75q54 0 97 -30t68.5 -85.5t25.5 -133.5q0 -77 -27 -133.5t-73.5 -87.5t-105.5 -31q-34 0 -67.5 14t-65.5 51v-79q0 -40 0.5 -80.5t1.5 -81.5l91 -15v-35
h-257zM323 431q-23 0 -53 -11.5t-68 -43.5v-281q28 -27 55 -39t55 -12q56 0 96 45t40 142q0 96 -35 148t-90 52z" />
    <glyph glyph-name="q" unicode="q" horiz-adv-x="557" 
d="M135 234q0 -98 39.5 -144t99.5 -46q33 0 60 14.5t56 48.5v269q-36 32 -63.5 43.5t-53.5 11.5q-37 0 -68.5 -21t-50.5 -64.5t-19 -111.5zM249 -13q-61 0 -107 31t-71.5 86t-25.5 128q0 77 27.5 134.5t75.5 89.5t107 32q35 0 69.5 -15t68.5 -54l68 69l16 -10l-3 -135v-370
q0 -40 0.5 -81t1.5 -82l80 -14v-35h-257v35l92 15q1 41 1.5 81.5t0.5 80.5v92q-29 -40 -64.5 -59t-79.5 -19z" />
    <glyph glyph-name="r" unicode="r" horiz-adv-x="423" 
d="M42 0v36l72 13q1 38 1.5 82.5t0.5 78.5v48q0 41 -0.5 68t-2.5 57l-79 9v35l140 61l15 -10l11 -118q25 60 64.5 94t79.5 34q23 0 43 -10t29 -27q0 -73 -59 -73q-17 0 -32 6.5t-29 18.5l-12 11q-30 -22 -50 -54t-33 -75v-75q0 -33 0.5 -77t1.5 -82l82 -15v-36h-243z" />
    <glyph glyph-name="s" unicode="s" horiz-adv-x="434" 
d="M200 -13q-42 0 -77 9.5t-72 28.5l-4 110h55l19 -87q35 -16 81 -16q57 0 84.5 21t27.5 55q0 32 -23 51.5t-70 35.5l-46 17q-55 20 -88 52t-33 83q0 37 20 69t59 52t95 20q41 0 74.5 -10.5t65.5 -30.5l-4 -102h-52l-16 80q-34 17 -69 17q-46 0 -69.5 -18.5t-23.5 -49.5
q0 -33 20.5 -50t71.5 -36l31 -11q75 -28 106.5 -64t31.5 -83q0 -38 -22 -70.5t-65 -52.5t-108 -20z" />
    <glyph glyph-name="t" unicode="t" horiz-adv-x="325" 
d="M205 -13q-52 0 -83 28t-31 86q0 19 0.5 37.5t0.5 47.5v236h-83v44l89 11l26 134h60l-6 -136h135v-53h-136v-310q0 -38 15 -55.5t40 -17.5q17 0 32.5 7t34.5 20l24 -26q-41 -53 -118 -53z" />
    <glyph glyph-name="u" unicode="u" horiz-adv-x="583" 
d="M223 -13q-61 0 -96 40.5t-34 139.5l3 249l-71 15v36l147 14l10 -10l-5 -140v-155q0 -65 20 -91.5t60 -26.5q70 0 140 65l3 294l-71 14v36l145 14l10 -10l-3 -140v-281l68 -14v-36l-139 -8l-10 89q-40 -49 -85.5 -71.5t-91.5 -22.5z" />
    <glyph glyph-name="v" unicode="v" horiz-adv-x="505" 
d="M306 436v39h190v-39l-55 -13l-162 -429h-43l-182 432l-54 10v39h242v-39l-88 -13l122 -320l111 319z" />
    <glyph glyph-name="w" unicode="w" horiz-adv-x="764" 
d="M571 436v39h183v-39l-54 -13l-146 -429h-37l-130 355l-132 -355h-37l-161 432l-57 10v39h228v-39l-78 -12l103 -307l112 307l-74 12v39h221v-39l-74 -13l114 -305l93 304z" />
    <glyph glyph-name="x" unicode="x" horiz-adv-x="526" 
d="M316 436v39h187v-39l-59 -11l-143 -176l139 -199l76 -14v-36h-244v36l71 13l-98 143l-110 -143l75 -13v-36h-200v36l64 12l146 181l-134 196l-69 11v39h223v-39l-61 -11l96 -139l107 137z" />
    <glyph glyph-name="y" unicode="y" horiz-adv-x="512" 
d="M317 439v36h195v-36l-54 -11l-161 -425q-50 -133 -96.5 -192.5t-108.5 -59.5q-37 0 -64.5 18.5t-27.5 47.5q5 22 24.5 33t42.5 11q20 0 37 -8.5t37 -29.5l5 -5q32 27 54 65.5t36 78.5l4 12l-181 457l-55 8v36h240v-37l-88 -10l125 -341l123 340z" />
    <glyph glyph-name="z" unicode="z" horiz-adv-x="456" 
d="M29 0v35l287 397h-202l-27 -111l-52 4l8 150h373v-36l-286 -397h219l30 121h52l-10 -163h-392z" />
    <glyph glyph-name="braceleft" unicode="{" horiz-adv-x="344" 
d="M40 258v40q63 8 91 31.5t28 60.5q0 27 -10.5 58.5t-21 68t-10.5 77.5q0 59 40.5 90t111.5 31h45v-40l-27 -3q-52 -6 -74.5 -22t-22.5 -60q0 -57 11 -108t11 -81q0 -48 -22 -80t-71 -43q49 -10 71 -42.5t22 -80.5q0 -30 -11 -81t-11 -108q0 -43 22.5 -59.5t74.5 -22.5
l27 -3v-40h-45q-71 0 -111.5 31t-40.5 90q0 42 10.5 78t21 67.5t10.5 58.5q0 38 -28 61t-91 31z" />
    <glyph glyph-name="bar" unicode="|" horiz-adv-x="251" 
d="M96 -250v1000h59v-1000h-59z" />
    <glyph glyph-name="braceright" unicode="}" horiz-adv-x="344" 
d="M304 298v-40q-63 -8 -91 -31t-28 -61q0 -27 10.5 -58.5t21 -67.5t10.5 -78q0 -59 -40.5 -90t-111.5 -31h-45v40l27 3q52 6 74.5 22.5t22.5 59.5q0 57 -11 108t-11 81q0 48 22 80.5t71 42.5q-49 11 -71 43t-22 80q0 30 11 81t11 108q0 44 -22.5 60t-74.5 22l-27 3v40h45
q71 0 111.5 -31t40.5 -90q0 -41 -10.5 -77.5t-21 -68t-10.5 -58.5q0 -37 28 -60.5t91 -31.5z" />
    <glyph glyph-name="asciitilde" unicode="~" horiz-adv-x="531" 
d="M285 367q23 -23 43.5 -32t39.5 -9q21 0 39 19.5t25 71.5l50 -8q-8 -141 -120 -141q-60 0 -115 55q-24 24 -44 32.5t-40 8.5q-21 0 -38.5 -19t-24.5 -72l-51 8q9 141 120 141q60 0 116 -55z" />
    <glyph glyph-name="exclamdown" unicode="&#xa1;" horiz-adv-x="289" 
d="M144 488q27 0 46 -19.5t19 -45.5t-19 -45.5t-46 -19.5t-45.5 19.5t-18.5 45.5t18.5 45.5t45.5 19.5zM144 -209q-26 0 -41.5 15t-15.5 48q0 28 7.5 96.5t17.5 172.5l14 137h37l13 -137q11 -104 18.5 -172.5t7.5 -96.5q0 -33 -15.5 -48t-42.5 -15z" />
    <glyph glyph-name="cent" unicode="&#xa2;" horiz-adv-x="500" 
d="M289 -45h-41v108q-93 6 -149 73.5t-56 177.5q0 73 28 127t75 86t102 39v94h41v-92q63 -4 109 -40t55 -90q-8 -38 -47 -38q-24 0 -39 18t-25 58l-9 39q-11 3 -22 5t-22 3v-397q43 2 81 22t61 56l24 -13q-19 -57 -60.5 -90t-105.5 -38v-108zM130 323q0 -82 32.5 -131.5
t85.5 -61.5v390q-52 -11 -85 -61.5t-33 -135.5z" />
    <glyph glyph-name="sterling" unicode="&#xa3;" horiz-adv-x="500" 
d="M35 0v52q53 30 82.5 85t29.5 113q0 19 -3 34h-103v51h88q-12 32 -25.5 63t-13.5 77q0 53 24 94.5t66 65.5t97 24q46 0 85 -18.5t63.5 -51.5t26.5 -76q-12 -32 -46 -32q-21 0 -36 14.5t-23 52.5l-14 61q-12 3 -22.5 4t-18.5 1q-46 0 -78 -31.5t-32 -103.5q0 -43 6 -76
t11 -68h185v-51h-180q1 -7 1 -13.5v-13.5q-1 -61 -20.5 -103.5t-55.5 -71.5h337v-82h-431z" />
    <glyph glyph-name="currency" unicode="&#xa4;" horiz-adv-x="502" 
d="M143 329q0 -49 32 -80.5t76 -31.5t76 31.5t32 80.5q0 50 -32 80.5t-76 30.5t-76 -30.5t-32 -80.5zM86 329q0 32 10 58.5t27 46.5l-36 22q-34 20 -46 33t-12 26q0 15 10.5 25.5t25.5 10.5q14 0 27 -12t32 -46l22 -37q45 36 105 36t105 -36l22 37q20 34 33 46t26 12
q15 0 26 -10.5t11 -25.5q0 -13 -12 -26t-46 -33l-37 -22q17 -20 27 -46.5t10 -58.5q0 -31 -10 -58t-27 -47l37 -22q34 -20 46 -32.5t12 -26.5q0 -15 -11 -26t-26 -11q-13 0 -26 12t-33 46l-22 37q-46 -35 -105 -35t-105 35l-22 -37q-19 -34 -32 -46t-27 -12
q-15 0 -25.5 10.5t-10.5 26.5q0 14 12 26.5t46 32.5l36 22q-17 20 -27 47t-10 58z" />
    <glyph glyph-name="yen" unicode="&#xa5;" horiz-adv-x="500" 
d="M50 148v50h160v72h-160v50h138l-131 278l-68 9v39h243v-39l-77 -10l116 -268l121 267l-73 11v39h192v-39l-71 -12l-126 -275h143v-50h-166l-1 -3v-69h167v-50h-167q0 -24 0.5 -47.5t1.5 -49.5l105 -11v-40h-292v40l103 11q1 25 1 49t1 48h-160z" />
    <glyph glyph-name="brokenbar" unicode="&#xa6;" horiz-adv-x="251" 
d="M96 -250v450h59v-450h-59zM155 320h-59v430h59v-430z" />
    <glyph glyph-name="section" unicode="&#xa7;" horiz-adv-x="491" 
d="M263 684q46 0 82.5 -15t58 -40t21.5 -55q-7 -19 -19 -27.5t-28 -8.5q-22 0 -37.5 13.5t-29.5 41.5l-22 45q-4 1 -8.5 1h-9.5q-54 0 -79 -23t-25 -53q0 -46 36.5 -73t85.5 -50q77 -34 117 -70t40 -98q0 -43 -21 -75.5t-59 -55.5q16 -19 25 -40.5t9 -48.5q0 -39 -20.5 -74
t-59 -57t-94.5 -22q-45 0 -81.5 15.5t-57.5 41t-21 54.5q7 20 19 27.5t28 7.5q22 0 37.5 -13t28.5 -41l23 -45q4 -1 8 -1h8q55 0 80.5 25.5t25.5 59.5q0 41 -32 64.5t-91 51.5q-45 22 -80 44t-55.5 52.5t-20.5 75.5q0 80 81 127q-36 43 -36 97q0 35 18.5 67.5t57 53.5
t97.5 21zM239 224q27 -12 53 -26.5t47 -31.5q17 17 26.5 39.5t9.5 43.5q0 42 -35 65t-91 48q-63 29 -98 59q-36 -33 -36 -78q0 -30 18 -51.5t46.5 -37t59.5 -30.5z" />
    <glyph glyph-name="dieresis" unicode="&#xa8;" horiz-adv-x="400" 
d="M95 596q-24 0 -41.5 16t-17.5 41q0 24 17.5 40.5t41.5 16.5q25 0 42.5 -16.5t17.5 -40.5q0 -25 -17.5 -41t-42.5 -16zM305 596q-25 0 -42.5 16t-17.5 41q0 24 17.5 40.5t42.5 16.5q24 0 41.5 -16.5t17.5 -40.5q0 -25 -17.5 -41t-41.5 -16z" />
    <glyph glyph-name="copyright" unicode="&#xa9;" horiz-adv-x="755" 
d="M81 337q0 -96 39.5 -166t106.5 -108t151 -38t151.5 38t106.5 108t39 166t-39 164.5t-106.5 105.5t-151.5 37t-151 -36.5t-106.5 -105.5t-39.5 -165zM30 337q0 109 46.5 186.5t125.5 119t176 41.5t175.5 -41.5t125 -119t46.5 -186.5t-46.5 -188t-125 -121.5t-175.5 -42.5
t-176 42.5t-125.5 121.5t-46.5 188zM402 175q11 0 26.5 2.5t31.5 8.5l11 71h44l-3 -95q-53 -28 -118 -28q-58 0 -102 26t-69 72t-25 105t25.5 105t70 72.5t99.5 26.5q32 0 58.5 -5.5t55.5 -22.5l2 -95h-43l-11 72q-14 7 -27.5 9.5t-25.5 2.5q-55 0 -93 -42t-38 -122
t36.5 -121.5t94.5 -41.5z" />
    <glyph glyph-name="ordfeminine" unicode="&#xaa;" horiz-adv-x="351" 
d="M284 488q0 -31 20 -31q13 0 26 15l15 -13q-11 -23 -26.5 -32t-35.5 -9q-28 0 -44 14t-21 38q-26 -26 -47 -40t-53 -14q-38 0 -64 21.5t-26 61.5q0 31 23 56.5t93 46.5q17 5 35.5 10t36.5 10v18q0 46 -13.5 62t-48.5 16q-13 0 -31 -3l-10 -38q-12 -44 -41 -44
q-30 0 -35 30q8 38 44.5 62t93.5 24q56 0 82.5 -27t26.5 -91v-143zM98 512q0 -26 16 -37.5t35 -11.5q15 0 28 7.5t39 25.5v100q-15 -4 -29 -8t-27 -9q-37 -13 -49.5 -30.5t-12.5 -36.5z" />
    <glyph glyph-name="guillemotleft" unicode="&#xab;" horiz-adv-x="487" 
d="M235 50l-205 176v53l205 176l24 -27l-150 -176l150 -175zM437 50l-205 176v53l205 176l24 -27l-150 -176l150 -175z" />
    <glyph glyph-name="logicalnot" unicode="&#xac;" horiz-adv-x="531" 
d="M24 343v57h473v-241h-62v184h-411z" />
    <glyph glyph-name="registered" unicode="&#xae;" horiz-adv-x="459" 
d="M65 516q0 -51 22.5 -89t60 -58.5t81.5 -20.5q45 0 82.5 20.5t60 58.5t22.5 89t-22.5 88t-60 57t-82.5 20q-44 0 -81.5 -20t-60 -57t-22.5 -88zM30 516q0 62 27.5 105.5t73 67t98.5 23.5q54 0 99.5 -23.5t73 -67t27.5 -105.5q0 -61 -27.5 -106t-73 -69t-99.5 -24
q-55 0 -100 24t-72 69t-27 106zM336 434v-15q-17 -4 -30 -4q-19 0 -27.5 5t-11.5 21l-9 43q-4 24 -35 24h-14v-71l28 -3v-15h-100v15l29 3v164l-29 3v16h95q36 0 56 -14t20 -37q0 -16 -11 -30.5t-38 -21.5q38 -8 45 -39l8 -41zM222 603h-13v-78h13q22 0 31 12t9 28
q0 38 -40 38z" />
    <glyph glyph-name="macron" unicode="&#xaf;" horiz-adv-x="400" 
d="M69 596v63h262v-63h-262z" />
    <glyph glyph-name="degree" unicode="&#xb0;" horiz-adv-x="328" 
d="M164 464q36 0 60.5 26t24.5 65t-24.5 66.5t-60.5 27.5t-60.5 -27.5t-24.5 -66.5t24.5 -65t60.5 -26zM164 428q-52 0 -89.5 34.5t-37.5 92.5q0 59 37.5 94t89.5 35t89.5 -35t37.5 -94q0 -58 -37.5 -92.5t-89.5 -34.5z" />
    <glyph glyph-name="plusminus" unicode="&#xb1;" horiz-adv-x="531" 
d="M502 0h-473v58h473v-58zM235 98v204h-206v58h206v198h61v-198h206v-58h-206v-204h-61z" />
    <glyph glyph-name="two.sups" unicode="&#xb2;" horiz-adv-x="370" 
d="M54 425v50l93 89q44 43 66 80t22 75t-20 58t-55 20q-6 0 -12.5 -0.5t-13.5 -1.5l-10 -39q-7 -29 -16 -39.5t-23 -10.5q-24 0 -37 24q4 51 45 76t94 25q65 0 93 -32t28 -72q0 -29 -13.5 -55.5t-42 -57t-73.5 -72.5l-51 -47h195v-70h-269z" />
    <glyph glyph-name="three.sups" unicode="&#xb3;" horiz-adv-x="370" 
d="M129 653h25q82 0 82 72q0 35 -19.5 53.5t-53.5 18.5q-5 0 -11 -0.5t-13 -1.5l-7 -36q-4 -22 -14.5 -32t-24.5 -10q-23 0 -34 21q6 48 41.5 70.5t82.5 22.5q56 0 90 -27t34 -71q0 -35 -20.5 -62t-54.5 -36q93 -17 93 -104q0 -41 -21 -66.5t-54.5 -37t-70.5 -11.5
q-58 0 -92 24.5t-42 70.5q5 15 15 20.5t20 5.5q14 0 24 -9.5t15 -38.5l8 -36q15 -4 33 -4q44 0 68 22.5t24 62.5q0 37 -22 58t-71 21h-30v40z" />
    <glyph glyph-name="acute" unicode="&#xb4;" horiz-adv-x="400" 
d="M140 576q42 71 89 141q14 23 27.5 32t26.5 9q14 0 26 -9t12 -29q0 -10 -6.5 -22.5t-27.5 -32.5q-31 -28 -60.5 -54.5t-60.5 -53.5z" />
    <glyph glyph-name="mu" unicode="&#xb5;" horiz-adv-x="569" 
d="M79 -180l21 282l-15 367l85 19l11 -10q-4 -83 -8 -143l-7 -105t-4 -83q23 -50 52 -66.5t57 -16.5q38 0 67.5 21t54.5 85l-6 299l86 19l10 -10q-8 -100 -13.5 -163t-8 -103.5t-1.5 -75.5q2 -47 11 -63.5t34 -16.5q10 0 21 2.5t20 6.5l9 -25q-12 -22 -33 -37.5t-51 -15.5
q-40 0 -56 30t-20 85q-25 -61 -59 -88t-75 -27q-29 0 -60.5 19.5t-51.5 57.5l25 -236l-83 -18z" />
    <glyph glyph-name="paragraph" unicode="&#xb6;" horiz-adv-x="598" 
d="M316 623v-474q-92 1 -157.5 34.5t-99.5 93t-34 135.5q0 78 40.5 135.5t114.5 89.5t175 32h199v-41l-92 -11q-1 -63 -1.5 -128t-0.5 -130v-178q0 -77 0.5 -155t2.5 -155h-82q2 76 2.5 153.5t0.5 156.5v442h-68z" />
    <glyph glyph-name="periodcentered" unicode="&#xb7;" horiz-adv-x="300" 
d="M150 261q-30 0 -50.5 21t-20.5 50q0 30 20.5 51t50.5 21t50.5 -21t20.5 -51q0 -29 -20.5 -50t-50.5 -21z" />
    <glyph glyph-name="cedilla" unicode="&#xb8;" horiz-adv-x="400" 
d="M146 -86l13 89h37l-8 -61q38 -6 65 -26t27 -56q0 -34 -28.5 -57t-83.5 -23q-22 0 -37.5 3t-25.5 6l7 31q24 -3 48 -3q58 0 58 45q0 23 -17.5 35t-54.5 17z" />
    <glyph glyph-name="one.sups" unicode="&#xb9;" horiz-adv-x="370" 
d="M79 796l139 32l9 -6v-352l88 -16v-29h-249v29l90 16v295l-77 -6v37z" />
    <glyph glyph-name="ordmasculine" unicode="&#xba;" horiz-adv-x="377" 
d="M189 714q-91 0 -91 -132q0 -68 23.5 -100t67.5 -32q43 0 66.5 32t23.5 100q0 67 -23.5 99.5t-66.5 32.5zM189 749q41 0 77.5 -20t59.5 -57t23 -90t-22.5 -90.5t-59 -57t-78.5 -19.5t-78.5 20t-59.5 57.5t-23 89.5q0 53 23 90t60 57t78 20z" />
    <glyph glyph-name="guillemotright" unicode="&#xbb;" horiz-adv-x="487" 
d="M50 455l205 -176v-53l-205 -176l-24 27l150 175l-150 176zM252 455l205 -176v-53l-205 -176l-24 27l150 175l-150 176z" />
    <glyph glyph-name="onequarter" unicode="&#xbc;" horiz-adv-x="861" 
d="M238 -25l-31 25l465 669l31 -25zM80 624l139 32l9 -6v-352l88 -16v-29h-249v29l90 16v295l-77 -6v37zM480 101v46l188 256h47v-245h64v-57h-64v-101h-65v101h-170zM529 158h121v173z" />
    <glyph glyph-name="onehalf" unicode="&#xbd;" horiz-adv-x="861" 
d="M206 -25l-31 25l465 669l31 -25zM72 624l139 32l9 -6v-352l88 -16v-29h-249v29l90 16v295l-77 -6v37zM518 0v50l93 89q44 43 66 80t22 75t-20 58t-55 20q-6 0 -12.5 -0.5t-13.5 -1.5l-10 -39q-7 -29 -16 -39.5t-23 -10.5q-24 0 -37 24q4 51 45 76t94 25q65 0 93 -32
t28 -72q0 -29 -13.5 -55.5t-42 -57t-73.5 -72.5l-51 -47h195v-70h-269z" />
    <glyph glyph-name="threequarters" unicode="&#xbe;" horiz-adv-x="861" 
d="M247 -25l-31 25l465 669l31 -25zM162 481h25q82 0 82 72q0 35 -19.5 53.5t-53.5 18.5q-5 0 -11 -0.5t-13 -1.5l-7 -36q-4 -22 -14.5 -32t-24.5 -10q-23 0 -34 21q6 48 41.5 70.5t82.5 22.5q56 0 90 -27t34 -71q0 -35 -20.5 -62t-54.5 -36q93 -17 93 -104q0 -41 -21 -66.5
t-54.5 -37t-70.5 -11.5q-58 0 -92 24.5t-42 70.5q5 15 15 20.5t20 5.5q14 0 24 -9.5t15 -38.5l8 -36q15 -4 33 -4q44 0 68 22.5t24 62.5q0 37 -22 58t-71 21h-30v40zM489 101v46l188 256h47v-245h64v-57h-64v-101h-65v101h-170zM538 158h121v173z" />
    <glyph glyph-name="questiondown" unicode="&#xbf;" horiz-adv-x="416" 
d="M267 489q27 0 45.5 -19.5t18.5 -45.5t-18.5 -45.5t-45.5 -19.5t-46 19.5t-19 45.5t19 45.5t46 19.5zM66 15q0 94 100 126l34 12q32 10 39.5 20t7.5 35v55h39l12 -42q9 -29 12.5 -45t3.5 -25q0 -22 -18 -37t-62 -29l-57 -18q-56 -19 -56 -69q0 -19 7 -37.5t19 -36.5
l131 -23q44 -8 58 -21.5t14 -32.5q0 -23 -14 -35.5t-41 -19.5q-32 3 -71 20t-75 46t-59.5 69t-23.5 88z" />
    <glyph glyph-name="Agrave" unicode="&#xc0;" horiz-adv-x="664" 
d="M309 562l-101 -298h201zM5 0v41l84 13l213 620h63l213 -624l75 -9v-41h-272v41l98 12l-55 164h-232l-56 -163l98 -13v-41h-229zM397 745l-18 -25q-32 17 -63.5 34t-62.5 33q-28 16 -39 29.5t-11 26.5q0 15 11 24.5t27 9.5q13 0 27 -8.5t35 -29.5q49 -46 94 -94z" />
    <glyph glyph-name="Aacute" unicode="&#xc1;" horiz-adv-x="664" 
d="M309 562l-101 -298h201zM5 0v41l84 13l213 620h63l213 -624l75 -9v-41h-272v41l98 12l-55 164h-232l-56 -163l98 -13v-41h-229zM266 745q46 49 94 94q21 21 35 29.5t27 8.5q16 0 27 -9.5t11 -24.5q0 -13 -10.5 -26t-39.5 -29q-31 -17 -62.5 -34t-63.5 -34z" />
    <glyph glyph-name="Acircumflex" unicode="&#xc2;" horiz-adv-x="664" 
d="M309 562l-101 -298h201zM5 0v41l84 13l213 620h63l213 -624l75 -9v-41h-272v41l98 12l-55 164h-232l-56 -163l98 -13v-41h-229zM349 837l131 -115l-19 -25l-129 74l-129 -74l-19 25l131 115h34z" />
    <glyph glyph-name="Atilde" unicode="&#xc3;" horiz-adv-x="664" 
d="M309 562l-101 -298h201zM5 0v41l84 13l213 620h63l213 -624l75 -9v-41h-272v41l98 12l-55 164h-232l-56 -163l98 -13v-41h-229zM151 734q9 59 34 94t71 35q27 0 46 -10.5t38 -26.5q17 -13 34 -29t39 -16q25 0 41 21.5t27 58.5l30 -10q-10 -58 -34 -93t-70 -35
q-28 0 -46.5 10t-35.5 23q-19 16 -36 32t-40 16q-24 0 -40.5 -21t-27.5 -58z" />
    <glyph glyph-name="Adieresis" unicode="&#xc4;" horiz-adv-x="664" 
d="M309 562l-101 -298h201zM5 0v41l84 13l213 620h63l213 -624l75 -9v-41h-272v41l98 12l-55 164h-232l-56 -163l98 -13v-41h-229zM220 744q-23 0 -40.5 15.5t-17.5 39.5t17.5 39.5t40.5 15.5q24 0 40.5 -15.5t16.5 -39.5t-16.5 -39.5t-40.5 -15.5zM443 744
q-24 0 -40.5 15.5t-16.5 39.5t16.5 39.5t40.5 15.5q23 0 40.5 -15.5t17.5 -39.5t-17.5 -39.5t-40.5 -15.5z" />
    <glyph glyph-name="Aring" unicode="&#xc5;" horiz-adv-x="664" 
d="M309 562l-101 -298h201zM5 0v41l84 13l213 620h63l213 -624l75 -9v-41h-272v41l98 12l-55 164h-232l-56 -163l98 -13v-41h-229zM332 722q-37 0 -66.5 24t-29.5 68t29.5 68.5t66.5 24.5t66.5 -24t29.5 -69q0 -43 -29.5 -67.5t-66.5 -24.5zM332 757q25 0 38.5 18t13.5 39
q0 22 -13 39t-39 17q-25 0 -38.5 -17t-13.5 -39q0 -21 13.5 -39t38.5 -18z" />
    <glyph glyph-name="AE" unicode="&#xc6;" horiz-adv-x="920" 
d="M277 295h181v318h-10zM5 0v41l83 11l307 565l-77 11v41h541l7 -177h-58l-22 127h-237q-1 -64 -1.5 -128t-0.5 -126h151l14 95h46v-236h-46l-13 94h-152q0 -75 0.5 -140.5t1.5 -127.5h257l22 128h58l-7 -178h-511v41l88 11q1 47 1.5 96t0.5 101h-206l-105 -195l87 -13v-41
h-229z" />
    <glyph glyph-name="Ccedilla" unicode="&#xc7;" horiz-adv-x="631" 
d="M386 -15q-101 0 -177.5 44.5t-119 123.5t-42.5 182q0 76 25.5 139.5t71 110.5t107 73t134.5 26q41 0 92 -9.5t101 -38.5l4 -145h-62l-20 116q-27 15 -52.5 21t-49.5 6q-67 0 -122 -34t-87.5 -100.5t-32.5 -164.5t30 -165t83.5 -101t121.5 -34q29 0 59.5 6.5t59.5 20.5
l20 116h62l-4 -145q-46 -25 -97.5 -36.5t-104.5 -11.5zM340 -86l13 89h37l-8 -61q38 -6 65 -26t27 -56q0 -34 -28.5 -57t-83.5 -23q-22 0 -37.5 3t-25.5 6l7 31q24 -3 48 -3q58 0 58 45q0 23 -17.5 35t-54.5 17z" />
    <glyph glyph-name="Egrave" unicode="&#xc8;" horiz-adv-x="603" 
d="M44 628v41h498l7 -177h-57l-22 127h-235q-1 -64 -1.5 -128t-0.5 -126h147l14 95h46v-236h-46l-13 94h-148q0 -75 0.5 -140.5t1.5 -127.5h255l22 128h57l-7 -178h-518v41l92 11q2 63 2 128v130v49v129.5t-2 128.5zM368 745l-18 -25q-32 17 -63.5 34t-62.5 33
q-28 16 -39 29.5t-11 26.5q0 15 11 24.5t27 9.5q13 0 27 -8.5t35 -29.5q49 -46 94 -94z" />
    <glyph glyph-name="Eacute" unicode="&#xc9;" horiz-adv-x="603" 
d="M44 628v41h498l7 -177h-57l-22 127h-235q-1 -64 -1.5 -128t-0.5 -126h147l14 95h46v-236h-46l-13 94h-148q0 -75 0.5 -140.5t1.5 -127.5h255l22 128h57l-7 -178h-518v41l92 11q2 63 2 128v130v49v129.5t-2 128.5zM274 745q46 49 94 94q21 21 35 29.5t27 8.5q16 0 27 -9.5
t11 -24.5q0 -13 -10.5 -26t-39.5 -29q-31 -17 -62.5 -34t-63.5 -34z" />
    <glyph glyph-name="Ecircumflex" unicode="&#xca;" horiz-adv-x="603" 
d="M44 628v41h498l7 -177h-57l-22 127h-235q-1 -64 -1.5 -128t-0.5 -126h147l14 95h46v-236h-46l-13 94h-148q0 -75 0.5 -140.5t1.5 -127.5h255l22 128h57l-7 -178h-518v41l92 11q2 63 2 128v130v49v129.5t-2 128.5zM358 856l131 -115l-19 -25l-129 74l-129 -74l-19 25
l131 115h34z" />
    <glyph glyph-name="Edieresis" unicode="&#xcb;" horiz-adv-x="603" 
d="M44 628v41h498l7 -177h-57l-22 127h-235q-1 -64 -1.5 -128t-0.5 -126h147l14 95h46v-236h-46l-13 94h-148q0 -75 0.5 -140.5t1.5 -127.5h255l22 128h57l-7 -178h-518v41l92 11q2 63 2 128v130v49v129.5t-2 128.5zM213 744q-23 0 -40.5 15.5t-17.5 39.5t17.5 39.5
t40.5 15.5q24 0 40.5 -15.5t16.5 -39.5t-16.5 -39.5t-40.5 -15.5zM436 744q-24 0 -40.5 15.5t-16.5 39.5t16.5 39.5t40.5 15.5q23 0 40.5 -15.5t17.5 -39.5t-17.5 -39.5t-40.5 -15.5z" />
    <glyph glyph-name="Igrave" unicode="&#xcc;" horiz-adv-x="371" 
d="M44 628v41h283v-41l-92 -11q-1 -63 -1.5 -128t-0.5 -130v-49q0 -64 0.5 -128.5t1.5 -129.5l92 -11v-41h-283v41l92 11q2 63 2 128v130v49v129.5t-2 128.5zM252 745l-18 -25q-32 17 -63.5 34t-62.5 33q-28 16 -39 29.5t-11 26.5q0 15 11 24.5t27 9.5q13 0 27 -8.5
t35 -29.5q49 -46 94 -94z" />
    <glyph glyph-name="Iacute" unicode="&#xcd;" horiz-adv-x="371" 
d="M44 628v41h283v-41l-92 -11q-1 -63 -1.5 -128t-0.5 -130v-49q0 -64 0.5 -128.5t1.5 -129.5l92 -11v-41h-283v41l92 11q2 63 2 128v130v49v129.5t-2 128.5zM138 745q46 49 94 94q21 21 35 29.5t27 8.5q16 0 27 -9.5t11 -24.5q0 -13 -10.5 -26t-39.5 -29q-31 -17 -62.5 -34
t-63.5 -34z" />
    <glyph glyph-name="Icircumflex" unicode="&#xce;" horiz-adv-x="371" 
d="M44 628v41h283v-41l-92 -11q-1 -63 -1.5 -128t-0.5 -130v-49q0 -64 0.5 -128.5t1.5 -129.5l92 -11v-41h-283v41l92 11q2 63 2 128v130v49v129.5t-2 128.5zM202 856l131 -115l-19 -25l-129 74l-129 -74l-19 25l131 115h34z" />
    <glyph glyph-name="Idieresis" unicode="&#xcf;" horiz-adv-x="371" 
d="M92 744q-22 0 -39 15.5t-17 39.5t17 39.5t39 15.5q25 0 41 -15.5t16 -39.5t-16 -39.5t-41 -15.5zM279 744q-25 0 -41 15.5t-16 39.5t16 39.5t41 15.5q23 0 40 -15.5t17 -39.5t-17 -39.5t-40 -15.5zM44 628v41h283v-41l-92 -11q-1 -63 -1.5 -128t-0.5 -130v-49
q0 -64 0.5 -128.5t1.5 -129.5l92 -11v-41h-283v41l92 11q2 63 2 128v130v49v129.5t-2 128.5z" />
    <glyph glyph-name="Eth" unicode="&#xd0;" horiz-adv-x="710" 
d="M386 319h-153q0 -76 0.5 -142.5t1.5 -129.5h79q116 0 178 75.5t62 211.5q0 141 -61 215t-170 74h-88q-1 -64 -1.5 -129.5t-0.5 -127.5h153v-47zM44 628v41h295q96 0 169 -38.5t114 -113t41 -183.5q0 -108 -45 -182.5t-122.5 -113t-175.5 -38.5h-276v41l92 11
q2 64 2 130.5v136.5h-94v47h94v128t-2 123z" />
    <glyph glyph-name="Ntilde" unicode="&#xd1;" horiz-adv-x="735" 
d="M454 628v41h241v-41l-85 -13v-622h-35l-400 545v-483l106 -14v-41h-242v41l85 12v555l-9 12l-71 8v41h154l361 -496v442zM196 724q9 59 34 94t71 35q27 0 46 -10.5t38 -26.5q17 -13 34 -29t39 -16q25 0 41 21.5t27 58.5l30 -10q-10 -58 -34 -93t-70 -35q-28 0 -46.5 10
t-35.5 23q-19 16 -36 32t-40 16q-24 0 -40.5 -21t-27.5 -58z" />
    <glyph glyph-name="Ograve" unicode="&#xd2;" horiz-adv-x="707" 
d="M354 -15q-58 0 -113 22.5t-99 66.5t-69.5 109.5t-25.5 151.5q0 82 26 147t69.5 110t98.5 68.5t113 23.5t112.5 -22.5t98 -66.5t69.5 -109t26 -151q0 -82 -25.5 -147t-69 -110.5t-98.5 -69t-113 -23.5zM354 35q52 0 89.5 25.5t61 68t34.5 96t11 110.5q0 56 -11 109.5
t-34.5 96.5t-61 68t-89.5 25t-89.5 -25t-61.5 -68t-35.5 -96.5t-11.5 -109.5q0 -57 11.5 -110.5t35.5 -96t61.5 -68t89.5 -25.5zM419 745l-18 -25q-32 17 -63.5 34t-62.5 33q-28 16 -39 29.5t-11 26.5q0 15 11 24.5t27 9.5q13 0 27 -8.5t35 -29.5q49 -46 94 -94z" />
    <glyph glyph-name="Oacute" unicode="&#xd3;" horiz-adv-x="707" 
d="M354 -15q-58 0 -113 22.5t-99 66.5t-69.5 109.5t-25.5 151.5q0 82 26 147t69.5 110t98.5 68.5t113 23.5t112.5 -22.5t98 -66.5t69.5 -109t26 -151q0 -82 -25.5 -147t-69 -110.5t-98.5 -69t-113 -23.5zM354 35q52 0 89.5 25.5t61 68t34.5 96t11 110.5q0 56 -11 109.5
t-34.5 96.5t-61 68t-89.5 25t-89.5 -25t-61.5 -68t-35.5 -96.5t-11.5 -109.5q0 -57 11.5 -110.5t35.5 -96t61.5 -68t89.5 -25.5zM307 745q46 49 94 94q21 21 35 29.5t27 8.5q16 0 27 -9.5t11 -24.5q0 -13 -10.5 -26t-39.5 -29q-31 -17 -62.5 -34t-63.5 -34z" />
    <glyph glyph-name="Ocircumflex" unicode="&#xd4;" horiz-adv-x="707" 
d="M354 -15q-58 0 -113 22.5t-99 66.5t-69.5 109.5t-25.5 151.5q0 82 26 147t69.5 110t98.5 68.5t113 23.5t112.5 -22.5t98 -66.5t69.5 -109t26 -151q0 -82 -25.5 -147t-69 -110.5t-98.5 -69t-113 -23.5zM354 35q52 0 89.5 25.5t61 68t34.5 96t11 110.5q0 56 -11 109.5
t-34.5 96.5t-61 68t-89.5 25t-89.5 -25t-61.5 -68t-35.5 -96.5t-11.5 -109.5q0 -57 11.5 -110.5t35.5 -96t61.5 -68t89.5 -25.5zM371 856l131 -115l-19 -25l-129 74l-129 -74l-19 25l131 115h34z" />
    <glyph glyph-name="Otilde" unicode="&#xd5;" horiz-adv-x="707" 
d="M354 -15q-58 0 -113 22.5t-99 66.5t-69.5 109.5t-25.5 151.5q0 82 26 147t69.5 110t98.5 68.5t113 23.5t112.5 -22.5t98 -66.5t69.5 -109t26 -151q0 -82 -25.5 -147t-69 -110.5t-98.5 -69t-113 -23.5zM354 35q52 0 89.5 25.5t61 68t34.5 96t11 110.5q0 56 -11 109.5
t-34.5 96.5t-61 68t-89.5 25t-89.5 -25t-61.5 -68t-35.5 -96.5t-11.5 -109.5q0 -57 11.5 -110.5t35.5 -96t61.5 -68t89.5 -25.5zM174 734q9 59 34 94t71 35q27 0 46 -10.5t38 -26.5q17 -13 34 -29t39 -16q25 0 41 21.5t27 58.5l30 -10q-10 -58 -34 -93t-70 -35
q-28 0 -46.5 10t-35.5 23q-19 16 -36 32t-40 16q-24 0 -40.5 -21t-27.5 -58z" />
    <glyph glyph-name="Odieresis" unicode="&#xd6;" horiz-adv-x="707" 
d="M354 -15q-58 0 -113 22.5t-99 66.5t-69.5 109.5t-25.5 151.5q0 82 26 147t69.5 110t98.5 68.5t113 23.5t112.5 -22.5t98 -66.5t69.5 -109t26 -151q0 -82 -25.5 -147t-69 -110.5t-98.5 -69t-113 -23.5zM354 35q52 0 89.5 25.5t61 68t34.5 96t11 110.5q0 56 -11 109.5
t-34.5 96.5t-61 68t-89.5 25t-89.5 -25t-61.5 -68t-35.5 -96.5t-11.5 -109.5q0 -57 11.5 -110.5t35.5 -96t61.5 -68t89.5 -25.5zM242 744q-23 0 -40.5 15.5t-17.5 39.5t17.5 39.5t40.5 15.5q24 0 40.5 -15.5t16.5 -39.5t-16.5 -39.5t-40.5 -15.5zM465 744q-24 0 -40.5 15.5
t-16.5 39.5t16.5 39.5t40.5 15.5q23 0 40.5 -15.5t17.5 -39.5t-17.5 -39.5t-40.5 -15.5z" />
    <glyph glyph-name="multiply" unicode="&#xd7;" horiz-adv-x="531" 
d="M447 107l-181 181l-182 -181l-41 41l181 182l-181 181l41 41l182 -182l181 182l41 -41l-182 -181l182 -182z" />
    <glyph glyph-name="Oslash" unicode="&#xd8;" horiz-adv-x="707" 
d="M646 656l-65 -79q36 -43 57.5 -104t21.5 -138q0 -82 -25.5 -147t-69 -110.5t-98.5 -69t-113 -23.5q-52 0 -103 18.5t-92 54.5l-64 -79l-43 34l69 85q-34 44 -54 103t-20 134q0 82 26 147t69.5 110t98.5 68.5t113 23.5q51 0 100 -17t89 -52l61 75zM146 335
q0 -45 7.5 -88.5t22.5 -81.5l323 396q-25 33 -61 53t-84 20q-55 0 -94.5 -25t-64.5 -68t-37 -96.5t-12 -109.5zM560 335q0 47 -8 92t-25 83l-322 -396q25 -36 62 -57.5t87 -21.5q55 0 94 25.5t64 68t36.5 96t11.5 110.5z" />
    <glyph glyph-name="Ugrave" unicode="&#xd9;" horiz-adv-x="727" 
d="M453 628v41h240v-41l-87 -11v-343q0 -105 -31 -168.5t-85 -92t-123 -28.5q-72 0 -127 28t-85.5 87t-30.5 152v108v129.5t-2 128.5l-83 10v41h283v-41l-102 -12q-1 -63 -1.5 -127t-0.5 -129v-79q0 -85 20.5 -134.5t57.5 -70t88 -20.5q85 0 128 54.5t43 187.5v317zM431 735
l-18 -25q-32 17 -63.5 34t-62.5 33q-28 16 -39 29.5t-11 26.5q0 15 11 24.5t27 9.5q13 0 27 -8.5t35 -29.5q49 -46 94 -94z" />
    <glyph glyph-name="Uacute" unicode="&#xda;" horiz-adv-x="727" 
d="M453 628v41h240v-41l-87 -11v-343q0 -105 -31 -168.5t-85 -92t-123 -28.5q-72 0 -127 28t-85.5 87t-30.5 152v108v129.5t-2 128.5l-83 10v41h283v-41l-102 -12q-1 -63 -1.5 -127t-0.5 -129v-79q0 -85 20.5 -134.5t57.5 -70t88 -20.5q85 0 128 54.5t43 187.5v317zM327 735
q46 49 94 94q21 21 35 29.5t27 8.5q16 0 27 -9.5t11 -24.5q0 -13 -10.5 -26t-39.5 -29q-31 -17 -62.5 -34t-63.5 -34z" />
    <glyph glyph-name="Ucircumflex" unicode="&#xdb;" horiz-adv-x="727" 
d="M453 628v41h240v-41l-87 -11v-343q0 -105 -31 -168.5t-85 -92t-123 -28.5q-72 0 -127 28t-85.5 87t-30.5 152v108v129.5t-2 128.5l-83 10v41h283v-41l-102 -12q-1 -63 -1.5 -127t-0.5 -129v-79q0 -85 20.5 -134.5t57.5 -70t88 -20.5q85 0 128 54.5t43 187.5v317zM400 846
l131 -115l-19 -25l-129 74l-129 -74l-19 25l131 115h34z" />
    <glyph glyph-name="Udieresis" unicode="&#xdc;" horiz-adv-x="727" 
d="M453 628v41h240v-41l-87 -11v-343q0 -105 -31 -168.5t-85 -92t-123 -28.5q-72 0 -127 28t-85.5 87t-30.5 152v108v129.5t-2 128.5l-83 10v41h283v-41l-102 -12q-1 -63 -1.5 -127t-0.5 -129v-79q0 -85 20.5 -134.5t57.5 -70t88 -20.5q85 0 128 54.5t43 187.5v317zM285 744
q-23 0 -40.5 15.5t-17.5 39.5t17.5 39.5t40.5 15.5q24 0 40.5 -15.5t16.5 -39.5t-16.5 -39.5t-40.5 -15.5zM508 744q-24 0 -40.5 15.5t-16.5 39.5t16.5 39.5t40.5 15.5q23 0 40.5 -15.5t17.5 -39.5t-17.5 -39.5t-40.5 -15.5z" />
    <glyph glyph-name="Yacute" unicode="&#xdd;" horiz-adv-x="633" 
d="M15 628v41h282v-41l-95 -11l139 -303l143 302l-90 12v41h229v-41l-88 -13l-170 -352q0 -58 0.5 -110.5t1.5 -100.5l102 -11v-41h-302v41l102 11q2 47 2 98v109l-177 360zM305 735q46 49 94 94q21 21 35 29.5t27 8.5q16 0 27 -9.5t11 -24.5q0 -13 -10.5 -26t-39.5 -29
q-31 -17 -62.5 -34t-63.5 -34z" />
    <glyph glyph-name="Thorn" unicode="&#xde;" horiz-adv-x="611" 
d="M138 310v49v129.5t-2 128.5l-92 11v41h288v-41l-97 -11q-1 -20 -1 -41v-41h92q131 0 195.5 -52t64.5 -137q0 -36 -12.5 -70t-44 -61.5t-87 -44t-141.5 -16.5h-68q1 -25 1 -50.5t1 -51.5l97 -11v-41h-288v41l92 11q2 63 2 128v130zM233 310v-53.5v-55.5h84
q88 0 129.5 41.5t41.5 105.5q0 68 -42 104t-132 36h-81v-63v-64v-51z" />
    <glyph glyph-name="germandbls" unicode="&#xdf;" horiz-adv-x="592" 
d="M107 210v209q0 81 9 131.5t26 82t41 55.5q33 33 72.5 47t82.5 14q77 0 125.5 -38.5t48.5 -97.5q0 -40 -22.5 -75t-63.5 -64q-33 -24 -45 -47t-12 -46q0 -31 17.5 -48t60.5 -43q49 -30 75.5 -54t37.5 -48.5t11 -56.5q0 -65 -41.5 -104.5t-128.5 -39.5q-37 0 -71 7.5
t-69 20.5l-4 119h49l24 -90q20 -7 36 -9.5t30 -2.5q50 0 72 22t22 59q0 18 -6.5 33t-25 32.5t-55.5 39.5q-49 29 -77.5 57.5t-28.5 81.5q0 38 16 69t52 60q35 29 49.5 53.5t14.5 60.5q0 47 -25.5 75.5t-80.5 28.5q-28 0 -49.5 -7.5t-39.5 -25.5q-14 -14 -24 -36t-14.5 -59.5
t-4.5 -99.5v-266q0 -105 3 -210h-169v36l80 14q1 41 1.5 80.5t0.5 79.5z" />
    <glyph glyph-name="agrave" unicode="&#xe0;" horiz-adv-x="509" 
d="M416 -10q-36 0 -60 21t-30 56q-41 -40 -72 -60t-75 -20q-55 0 -94.5 31.5t-39.5 93.5q0 29 13.5 54t49.5 49t103 48q23 8 53 17t60 16v25q0 73 -22 97t-72 24q-11 0 -24.5 -1t-29.5 -5l-19 -65q-14 -48 -52 -48q-42 0 -47 41q14 57 66.5 90.5t128.5 33.5q79 0 117 -39.5
t38 -134.5v-213q0 -32 10 -45.5t26 -13.5q13 0 22 6t17 16l20 -22q-18 -29 -39.5 -40.5t-47.5 -11.5zM134 127q0 -40 23 -57t57 -17q15 0 28.5 4t32.5 15.5t49 33.5v153q-26 -7 -51 -15.5t-41 -14.5q-43 -17 -64 -35t-27.5 -35t-6.5 -32zM311 576l-26 -19q-31 27 -60.5 53.5
t-60.5 54.5q-21 20 -27.5 32.5t-6.5 22.5q0 20 11.5 29t26.5 9q14 0 27 -9t27 -32q24 -36 45.5 -71t43.5 -70z" />
    <glyph glyph-name="aacute" unicode="&#xe1;" horiz-adv-x="509" 
d="M416 -10q-36 0 -60 21t-30 56q-41 -40 -72 -60t-75 -20q-55 0 -94.5 31.5t-39.5 93.5q0 29 13.5 54t49.5 49t103 48q23 8 53 17t60 16v25q0 73 -22 97t-72 24q-11 0 -24.5 -1t-29.5 -5l-19 -65q-14 -48 -52 -48q-42 0 -47 41q14 57 66.5 90.5t128.5 33.5q79 0 117 -39.5
t38 -134.5v-213q0 -32 10 -45.5t26 -13.5q13 0 22 6t17 16l20 -22q-18 -29 -39.5 -40.5t-47.5 -11.5zM134 127q0 -40 23 -57t57 -17q15 0 28.5 4t32.5 15.5t49 33.5v153q-26 -7 -51 -15.5t-41 -14.5q-43 -17 -64 -35t-27.5 -35t-6.5 -32zM219 576q42 71 89 141
q14 23 27.5 32t26.5 9q14 0 26 -9t12 -29q0 -10 -6.5 -22.5t-27.5 -32.5q-31 -28 -60.5 -54.5t-60.5 -53.5z" />
    <glyph glyph-name="acircumflex" unicode="&#xe2;" horiz-adv-x="509" 
d="M416 -10q-36 0 -60 21t-30 56q-41 -40 -72 -60t-75 -20q-55 0 -94.5 31.5t-39.5 93.5q0 29 13.5 54t49.5 49t103 48q23 8 53 17t60 16v25q0 73 -22 97t-72 24q-11 0 -24.5 -1t-29.5 -5l-19 -65q-14 -48 -52 -48q-42 0 -47 41q14 57 66.5 90.5t128.5 33.5q79 0 117 -39.5
t38 -134.5v-213q0 -32 10 -45.5t26 -13.5q13 0 22 6t17 16l20 -22q-18 -29 -39.5 -40.5t-47.5 -11.5zM134 127q0 -40 23 -57t57 -17q15 0 28.5 4t32.5 15.5t49 33.5v153q-26 -7 -51 -15.5t-41 -14.5q-43 -17 -64 -35t-27.5 -35t-6.5 -32zM378 546l-126 114l-126 -114l-23 22
l132 176h34l132 -176z" />
    <glyph glyph-name="atilde" unicode="&#xe3;" horiz-adv-x="509" 
d="M416 -10q-36 0 -60 21t-30 56q-41 -40 -72 -60t-75 -20q-55 0 -94.5 31.5t-39.5 93.5q0 29 13.5 54t49.5 49t103 48q23 8 53 17t60 16v25q0 73 -22 97t-72 24q-11 0 -24.5 -1t-29.5 -5l-19 -65q-14 -48 -52 -48q-42 0 -47 41q14 57 66.5 90.5t128.5 33.5q79 0 117 -39.5
t38 -134.5v-213q0 -32 10 -45.5t26 -13.5q13 0 22 6t17 16l20 -22q-18 -29 -39.5 -40.5t-47.5 -11.5zM134 127q0 -40 23 -57t57 -17q15 0 28.5 4t32.5 15.5t49 33.5v153q-26 -7 -51 -15.5t-41 -14.5q-43 -17 -64 -35t-27.5 -35t-6.5 -32zM80 586q8 59 31 94t64 35
q25 0 42 -10t31 -24q18 -17 33.5 -32.5t35.5 -15.5q23 0 37.5 21.5t24.5 58.5l27 -10q-9 -58 -31 -93t-64 -35q-25 0 -41.5 9.5t-31.5 23.5q-16 17 -32.5 32.5t-36.5 15.5q-22 0 -36.5 -21t-25.5 -58z" />
    <glyph glyph-name="adieresis" unicode="&#xe4;" horiz-adv-x="509" 
d="M416 -10q-36 0 -60 21t-30 56q-41 -40 -72 -60t-75 -20q-55 0 -94.5 31.5t-39.5 93.5q0 29 13.5 54t49.5 49t103 48q23 8 53 17t60 16v25q0 73 -22 97t-72 24q-11 0 -24.5 -1t-29.5 -5l-19 -65q-14 -48 -52 -48q-42 0 -47 41q14 57 66.5 90.5t128.5 33.5q79 0 117 -39.5
t38 -134.5v-213q0 -32 10 -45.5t26 -13.5q13 0 22 6t17 16l20 -22q-18 -29 -39.5 -40.5t-47.5 -11.5zM134 127q0 -40 23 -57t57 -17q15 0 28.5 4t32.5 15.5t49 33.5v153q-26 -7 -51 -15.5t-41 -14.5q-43 -17 -64 -35t-27.5 -35t-6.5 -32zM145 596q-24 0 -41.5 16t-17.5 41
q0 24 17.5 40.5t41.5 16.5q25 0 42.5 -16.5t17.5 -40.5q0 -25 -17.5 -41t-42.5 -16zM355 596q-25 0 -42.5 16t-17.5 41q0 24 17.5 40.5t42.5 16.5q24 0 41.5 -16.5t17.5 -40.5q0 -25 -17.5 -41t-41.5 -16z" />
    <glyph glyph-name="aring" unicode="&#xe5;" horiz-adv-x="509" 
d="M416 -10q-36 0 -60 21t-30 56q-41 -40 -72 -60t-75 -20q-55 0 -94.5 31.5t-39.5 93.5q0 29 13.5 54t49.5 49t103 48q23 8 53 17t60 16v25q0 73 -22 97t-72 24q-11 0 -24.5 -1t-29.5 -5l-19 -65q-14 -48 -52 -48q-42 0 -47 41q14 57 66.5 90.5t128.5 33.5q79 0 117 -39.5
t38 -134.5v-213q0 -32 10 -45.5t26 -13.5q13 0 22 6t17 16l20 -22q-18 -29 -39.5 -40.5t-47.5 -11.5zM134 127q0 -40 23 -57t57 -17q15 0 28.5 4t32.5 15.5t49 33.5v153q-26 -7 -51 -15.5t-41 -14.5q-43 -17 -64 -35t-27.5 -35t-6.5 -32zM257 590q27 0 42 19.5t15 42.5
t-14.5 42t-42.5 19q-27 0 -42 -19t-15 -42t14.5 -42.5t42.5 -19.5zM257 550q-40 0 -72.5 26.5t-32.5 75.5q0 47 32.5 74t72.5 27q41 0 73 -26t32 -75q0 -48 -32 -75t-73 -27z" />
    <glyph glyph-name="ae" unicode="&#xe6;" horiz-adv-x="782" 
d="M543 442q-28 0 -56 -15.5t-49 -50.5t-27 -94h182q36 0 48 15t12 37q0 29 -14.5 53.5t-39 39.5t-56.5 15zM542 -13q-127 0 -186 97q-40 -39 -69 -60t-53.5 -29t-54.5 -8q-55 0 -94.5 32.5t-39.5 94.5q0 29 13.5 53t49.5 47t103 47q23 8 53 17.5t60 16.5v26q0 73 -22.5 97
t-68.5 24q-12 0 -25.5 -1t-28.5 -5l-20 -69q-14 -48 -54 -48q-21 0 -33 12t-14 31q14 57 66.5 91.5t128.5 34.5q47 0 82.5 -18.5t52.5 -59.5q32 36 73 57t87 21q53 0 95.5 -23t67.5 -66t25 -104q0 -16 -2 -30.5t-5 -24.5h-320q1 -91 45.5 -139.5t117.5 -48.5q47 0 79.5 19.5
t59.5 50.5l23 -19q-27 -53 -75 -84.5t-117 -31.5zM134 129q0 -39 24 -57.5t56 -18.5q19 0 35 5t37.5 18t54.5 38q-21 50 -21 119v12t1 12q-25 -7 -49 -15.5t-40 -14.5q-43 -17 -64 -34t-27.5 -33t-6.5 -31z" />
    <glyph glyph-name="ccedilla" unicode="&#xe7;" horiz-adv-x="488" 
d="M267 -13q-103 0 -164 67t-61 182q0 79 32.5 135.5t85.5 86.5t113 30q45 0 83 -17t63 -46.5t31 -66.5q-7 -38 -46 -38q-25 0 -37.5 13.5t-17.5 34.5l-18 66q-14 5 -27.5 6.5t-26.5 1.5q-64 0 -105.5 -50t-41.5 -146q0 -94 45 -144t115 -50q43 0 79 19.5t59 56.5l25 -13
q-21 -62 -68 -95t-118 -33zM237 -86l13 89h37l-8 -61q38 -6 65 -26t27 -56q0 -34 -28.5 -57t-83.5 -23q-22 0 -37.5 3t-25.5 6l7 31q24 -3 48 -3q58 0 58 45q0 23 -17.5 35t-54.5 17z" />
    <glyph glyph-name="egrave" unicode="&#xe8;" horiz-adv-x="510" 
d="M269 442q-28 0 -56.5 -16t-49 -51t-26.5 -93h182q36 0 47.5 15t11.5 37q0 29 -14.5 53.5t-39 39.5t-55.5 15zM268 -13q-101 0 -162 65.5t-61 180.5q0 77 31.5 134t84 89t114.5 32q52 0 94 -23t67 -65.5t25 -103.5q0 -17 -2 -31.5t-5 -24.5h-319q2 -92 46 -140t116 -48
q48 0 80 19.5t59 50.5l24 -19q-28 -53 -76 -84.5t-116 -31.5zM310 576l-26 -19q-31 27 -60.5 53.5t-60.5 54.5q-21 20 -27.5 32.5t-6.5 22.5q0 20 11.5 29t26.5 9q14 0 27 -9t27 -32q24 -36 45.5 -71t43.5 -70z" />
    <glyph glyph-name="eacute" unicode="&#xe9;" horiz-adv-x="510" 
d="M269 442q-28 0 -56.5 -16t-49 -51t-26.5 -93h182q36 0 47.5 15t11.5 37q0 29 -14.5 53.5t-39 39.5t-55.5 15zM268 -13q-101 0 -162 65.5t-61 180.5q0 77 31.5 134t84 89t114.5 32q52 0 94 -23t67 -65.5t25 -103.5q0 -17 -2 -31.5t-5 -24.5h-319q2 -92 46 -140t116 -48
q48 0 80 19.5t59 50.5l24 -19q-28 -53 -76 -84.5t-116 -31.5zM225 576q42 71 89 141q14 23 27.5 32t26.5 9q14 0 26 -9t12 -29q0 -10 -6.5 -22.5t-27.5 -32.5q-31 -28 -60.5 -54.5t-60.5 -53.5z" />
    <glyph glyph-name="ecircumflex" unicode="&#xea;" horiz-adv-x="510" 
d="M269 442q-28 0 -56.5 -16t-49 -51t-26.5 -93h182q36 0 47.5 15t11.5 37q0 29 -14.5 53.5t-39 39.5t-55.5 15zM268 -13q-101 0 -162 65.5t-61 180.5q0 77 31.5 134t84 89t114.5 32q52 0 94 -23t67 -65.5t25 -103.5q0 -17 -2 -31.5t-5 -24.5h-319q2 -92 46 -140t116 -48
q48 0 80 19.5t59 50.5l24 -19q-28 -53 -76 -84.5t-116 -31.5zM397 546l-126 114l-126 -114l-23 22l132 176h34l132 -176z" />
    <glyph glyph-name="edieresis" unicode="&#xeb;" horiz-adv-x="510" 
d="M269 442q-28 0 -56.5 -16t-49 -51t-26.5 -93h182q36 0 47.5 15t11.5 37q0 29 -14.5 53.5t-39 39.5t-55.5 15zM268 -13q-101 0 -162 65.5t-61 180.5q0 77 31.5 134t84 89t114.5 32q52 0 94 -23t67 -65.5t25 -103.5q0 -17 -2 -31.5t-5 -24.5h-319q2 -92 46 -140t116 -48
q48 0 80 19.5t59 50.5l24 -19q-28 -53 -76 -84.5t-116 -31.5zM166 596q-24 0 -41.5 16t-17.5 41q0 24 17.5 40.5t41.5 16.5q25 0 42.5 -16.5t17.5 -40.5q0 -25 -17.5 -41t-42.5 -16zM376 596q-25 0 -42.5 16t-17.5 41q0 24 17.5 40.5t42.5 16.5q24 0 41.5 -16.5t17.5 -40.5
q0 -25 -17.5 -41t-41.5 -16z" />
    <glyph glyph-name="igrave" unicode="&#xec;" horiz-adv-x="298" 
d="M35 0v36l74 14q1 38 1.5 82t0.5 78v47q0 41 -0.5 68.5t-2.5 57.5l-79 9v35l155 61l15 -10l-3 -136v-132q0 -33 0.5 -77.5t1.5 -82.5l69 -14v-36h-232zM197 576l-26 -19q-31 27 -60.5 53.5t-60.5 54.5q-21 20 -27.5 32.5t-6.5 22.5q0 20 11.5 29t26.5 9q14 0 27 -9t27 -32
q24 -36 45.5 -71t43.5 -70z" />
    <glyph glyph-name="iacute" unicode="&#xed;" horiz-adv-x="298" 
d="M35 0v36l74 14q1 38 1.5 82t0.5 78v47q0 41 -0.5 68.5t-2.5 57.5l-79 9v35l155 61l15 -10l-3 -136v-132q0 -33 0.5 -77.5t1.5 -82.5l69 -14v-36h-232zM108 576q42 71 89 141q14 23 27.5 32t26.5 9q14 0 26 -9t12 -29q0 -10 -6.5 -22.5t-27.5 -32.5q-31 -28 -60.5 -54.5
t-60.5 -53.5z" />
    <glyph glyph-name="icircumflex" unicode="&#xee;" horiz-adv-x="298" 
d="M35 0v36l74 14q1 38 1.5 82t0.5 78v47q0 41 -0.5 68.5t-2.5 57.5l-79 9v35l155 61l15 -10l-3 -136v-132q0 -33 0.5 -77.5t1.5 -82.5l69 -14v-36h-232zM278 546l-126 114l-126 -114l-23 22l132 176h34l132 -176z" />
    <glyph glyph-name="idieresis" unicode="&#xef;" horiz-adv-x="298" 
d="M54 596q-24 0 -41.5 16t-17.5 41q0 24 17.5 40.5t41.5 16.5q25 0 43 -16.5t18 -40.5q0 -25 -18 -41t-43 -16zM243 596q-24 0 -42 16t-18 41q0 24 18 40.5t42 16.5q25 0 42 -16.5t17 -40.5q0 -25 -17 -41t-42 -16zM35 0v36l74 14q1 38 1.5 82t0.5 78v47q0 41 -0.5 68.5
t-2.5 57.5l-79 9v35l155 61l15 -10l-3 -136v-132q0 -33 0.5 -77.5t1.5 -82.5l69 -14v-36h-232z" />
    <glyph glyph-name="eth" unicode="&#xf0;" horiz-adv-x="546" 
d="M262 -13q-55 0 -105 28t-81 83.5t-31 135.5q0 78 32 131.5t82.5 81.5t106.5 28q81 0 126 -50q-31 103 -93 172l-142 -73l-18 37l130 66q-24 23 -53.5 45t-64.5 44l20 33q41 -19 79.5 -42.5t71.5 -52.5l152 78l18 -37l-138 -70q65 -64 103 -149.5t38 -195.5
q0 -136 -61 -214.5t-172 -78.5zM271 32q70 0 104 55.5t34 155.5q0 94 -36.5 140t-101.5 46q-64 0 -97.5 -51.5t-33.5 -148.5q0 -96 34.5 -146.5t96.5 -50.5z" />
    <glyph glyph-name="ntilde" unicode="&#xf1;" horiz-adv-x="606" 
d="M40 0v36l74 14q1 38 1.5 82t0.5 78v48q0 41 -0.5 68t-2.5 57l-79 9v35l140 61l15 -10l8 -80q37 40 85 65t94 25q65 0 96.5 -43.5t31.5 -141.5v-93q0 -34 0.5 -78t1.5 -82l70 -14v-36h-232v36l74 14q1 37 1.5 81.5t0.5 78.5v85q0 69 -19.5 95t-63.5 26q-34 0 -66 -14
t-70 -46v-146q0 -33 0.5 -77.5t1.5 -82.5l69 -14v-36h-232zM139 586q8 59 31 94t64 35q25 0 42 -10t31 -24q18 -17 33.5 -32.5t35.5 -15.5q23 0 37.5 21.5t24.5 58.5l27 -10q-9 -58 -31 -93t-64 -35q-25 0 -41.5 9.5t-31.5 23.5q-16 17 -32.5 32.5t-36.5 15.5
q-22 0 -36.5 -21t-25.5 -58z" />
    <glyph glyph-name="ograve" unicode="&#xf2;" horiz-adv-x="549" 
d="M274 -13q-58 0 -110.5 27.5t-85.5 83t-33 137.5q0 83 33 139.5t85.5 85t110.5 28.5t110.5 -28.5t86 -85t33.5 -139.5q0 -82 -33.5 -137.5t-86 -83t-110.5 -27.5zM274 32q65 0 100 51.5t35 151.5q0 101 -35 154t-100 53t-99.5 -53t-34.5 -154q0 -100 34.5 -151.5
t99.5 -51.5zM319 576l-26 -19q-31 27 -60.5 53.5t-60.5 54.5q-21 20 -27.5 32.5t-6.5 22.5q0 20 11.5 29t26.5 9q14 0 27 -9t27 -32q24 -36 45.5 -71t43.5 -70z" />
    <glyph glyph-name="oacute" unicode="&#xf3;" horiz-adv-x="549" 
d="M274 -13q-58 0 -110.5 27.5t-85.5 83t-33 137.5q0 83 33 139.5t85.5 85t110.5 28.5t110.5 -28.5t86 -85t33.5 -139.5q0 -82 -33.5 -137.5t-86 -83t-110.5 -27.5zM274 32q65 0 100 51.5t35 151.5q0 101 -35 154t-100 53t-99.5 -53t-34.5 -154q0 -100 34.5 -151.5
t99.5 -51.5zM236 576q42 71 89 141q14 23 27.5 32t26.5 9q14 0 26 -9t12 -29q0 -10 -6.5 -22.5t-27.5 -32.5q-31 -28 -60.5 -54.5t-60.5 -53.5z" />
    <glyph glyph-name="ocircumflex" unicode="&#xf4;" horiz-adv-x="549" 
d="M274 -13q-58 0 -110.5 27.5t-85.5 83t-33 137.5q0 83 33 139.5t85.5 85t110.5 28.5t110.5 -28.5t86 -85t33.5 -139.5q0 -82 -33.5 -137.5t-86 -83t-110.5 -27.5zM274 32q65 0 100 51.5t35 151.5q0 101 -35 154t-100 53t-99.5 -53t-34.5 -154q0 -100 34.5 -151.5
t99.5 -51.5zM400 546l-126 114l-126 -114l-23 22l132 176h34l132 -176z" />
    <glyph glyph-name="otilde" unicode="&#xf5;" horiz-adv-x="549" 
d="M274 -13q-58 0 -110.5 27.5t-85.5 83t-33 137.5q0 83 33 139.5t85.5 85t110.5 28.5t110.5 -28.5t86 -85t33.5 -139.5q0 -82 -33.5 -137.5t-86 -83t-110.5 -27.5zM274 32q65 0 100 51.5t35 151.5q0 101 -35 154t-100 53t-99.5 -53t-34.5 -154q0 -100 34.5 -151.5
t99.5 -51.5zM111 586q8 59 31 94t64 35q25 0 42 -10t31 -24q18 -17 33.5 -32.5t35.5 -15.5q23 0 37.5 21.5t24.5 58.5l27 -10q-9 -58 -31 -93t-64 -35q-25 0 -41.5 9.5t-31.5 23.5q-16 17 -32.5 32.5t-36.5 15.5q-22 0 -36.5 -21t-25.5 -58z" />
    <glyph glyph-name="odieresis" unicode="&#xf6;" horiz-adv-x="549" 
d="M274 -13q-58 0 -110.5 27.5t-85.5 83t-33 137.5q0 83 33 139.5t85.5 85t110.5 28.5t110.5 -28.5t86 -85t33.5 -139.5q0 -82 -33.5 -137.5t-86 -83t-110.5 -27.5zM274 32q65 0 100 51.5t35 151.5q0 101 -35 154t-100 53t-99.5 -53t-34.5 -154q0 -100 34.5 -151.5
t99.5 -51.5zM169 596q-24 0 -41.5 16t-17.5 41q0 24 17.5 40.5t41.5 16.5q25 0 42.5 -16.5t17.5 -40.5q0 -25 -17.5 -41t-42.5 -16zM379 596q-25 0 -42.5 16t-17.5 41q0 24 17.5 40.5t42.5 16.5q24 0 41.5 -16.5t17.5 -40.5q0 -25 -17.5 -41t-41.5 -16z" />
    <glyph glyph-name="divide" unicode="&#xf7;" horiz-adv-x="531" 
d="M265 68q-28 0 -48 18.5t-20 47.5q0 30 20 48t48 18q29 0 49 -18t20 -48q0 -29 -20 -47.5t-49 -18.5zM265 459q-28 0 -48 18.5t-20 47.5q0 30 20 48t48 18q29 0 49 -18t20 -48q0 -29 -20 -47.5t-49 -18.5zM502 301h-473v57h473v-57z" />
    <glyph glyph-name="oslash" unicode="&#xf8;" horiz-adv-x="549" 
d="M487 475l-47 -59q29 -31 46.5 -76.5t17.5 -104.5q0 -82 -33.5 -137.5t-86 -83t-110.5 -27.5q-38 0 -75 12t-67 36l-45 -56l-33 26l48 59q-26 31 -41.5 73.5t-15.5 97.5q0 83 33 139.5t85.5 85t110.5 28.5q74 0 135 -44l46 57zM135 235q0 -67 16 -111l220 273
q-34 45 -97 45q-67 0 -103 -53t-36 -154zM274 32q67 0 103.5 51.5t36.5 151.5q0 76 -21 124l-222 -276q35 -51 103 -51z" />
    <glyph glyph-name="ugrave" unicode="&#xf9;" horiz-adv-x="583" 
d="M223 -13q-61 0 -96 40.5t-34 139.5l3 249l-71 15v36l147 14l10 -10l-5 -140v-155q0 -65 20 -91.5t60 -26.5q70 0 140 65l3 294l-71 14v36l145 14l10 -10l-3 -140v-281l68 -14v-36l-139 -8l-10 89q-40 -49 -85.5 -71.5t-91.5 -22.5zM323 576l-26 -19q-31 27 -60.5 53.5
t-60.5 54.5q-21 20 -27.5 32.5t-6.5 22.5q0 20 11.5 29t26.5 9q14 0 27 -9t27 -32q24 -36 45.5 -71t43.5 -70z" />
    <glyph glyph-name="uacute" unicode="&#xfa;" horiz-adv-x="583" 
d="M223 -13q-61 0 -96 40.5t-34 139.5l3 249l-71 15v36l147 14l10 -10l-5 -140v-155q0 -65 20 -91.5t60 -26.5q70 0 140 65l3 294l-71 14v36l145 14l10 -10l-3 -140v-281l68 -14v-36l-139 -8l-10 89q-40 -49 -85.5 -71.5t-91.5 -22.5zM237 576q42 71 89 141q14 23 27.5 32
t26.5 9q14 0 26 -9t12 -29q0 -10 -6.5 -22.5t-27.5 -32.5q-31 -28 -60.5 -54.5t-60.5 -53.5z" />
    <glyph glyph-name="ucircumflex" unicode="&#xfb;" horiz-adv-x="583" 
d="M223 -13q-61 0 -96 40.5t-34 139.5l3 249l-71 15v36l147 14l10 -10l-5 -140v-155q0 -65 20 -91.5t60 -26.5q70 0 140 65l3 294l-71 14v36l145 14l10 -10l-3 -140v-281l68 -14v-36l-139 -8l-10 89q-40 -49 -85.5 -71.5t-91.5 -22.5zM409 546l-126 114l-126 -114l-23 22
l132 176h34l132 -176z" />
    <glyph glyph-name="udieresis" unicode="&#xfc;" horiz-adv-x="583" 
d="M223 -13q-61 0 -96 40.5t-34 139.5l3 249l-71 15v36l147 14l10 -10l-5 -140v-155q0 -65 20 -91.5t60 -26.5q70 0 140 65l3 294l-71 14v36l145 14l10 -10l-3 -140v-281l68 -14v-36l-139 -8l-10 89q-40 -49 -85.5 -71.5t-91.5 -22.5zM187 596q-24 0 -41.5 16t-17.5 41
q0 24 17.5 40.5t41.5 16.5q25 0 42.5 -16.5t17.5 -40.5q0 -25 -17.5 -41t-42.5 -16zM397 596q-25 0 -42.5 16t-17.5 41q0 24 17.5 40.5t42.5 16.5q24 0 41.5 -16.5t17.5 -40.5q0 -25 -17.5 -41t-41.5 -16z" />
    <glyph glyph-name="yacute" unicode="&#xfd;" horiz-adv-x="512" 
d="M317 439v36h195v-36l-54 -11l-161 -425q-50 -133 -96.5 -192.5t-108.5 -59.5q-37 0 -64.5 18.5t-27.5 47.5q5 22 24.5 33t42.5 11q20 0 37 -8.5t37 -29.5l5 -5q32 27 54 65.5t36 78.5l4 12l-181 457l-55 8v36h240v-37l-88 -10l125 -341l123 340zM247 576q42 71 89 141
q14 23 27.5 32t26.5 9q14 0 26 -9t12 -29q0 -10 -6.5 -22.5t-27.5 -32.5q-31 -28 -60.5 -54.5t-60.5 -53.5z" />
    <glyph glyph-name="thorn" unicode="&#xfe;" horiz-adv-x="554" 
d="M419 234q0 96 -35.5 146.5t-91.5 50.5q-22 0 -51.5 -11t-67.5 -43v-281q29 -27 58 -39.5t56 -12.5q53 0 92.5 46.5t39.5 143.5zM263 -204v-35h-257v35l80 14q1 41 1.5 81.5t0.5 80.5v677l-81 10v35l153 45l14 -8l-4 -142v-172q35 37 72 54t77 17q53 0 96 -29t68.5 -84
t25.5 -133q0 -77 -27 -134.5t-73.5 -89t-105.5 -31.5q-34 0 -67.5 14.5t-65.5 51.5v-81q0 -40 0.5 -80t1.5 -81z" />
    <glyph glyph-name="ydieresis" unicode="&#xff;" horiz-adv-x="512" 
d="M317 439v36h195v-36l-54 -11l-161 -425q-50 -133 -96.5 -192.5t-108.5 -59.5q-37 0 -64.5 18.5t-27.5 47.5q5 22 24.5 33t42.5 11q20 0 37 -8.5t37 -29.5l5 -5q32 27 54 65.5t36 78.5l4 12l-181 457l-55 8v36h240v-37l-88 -10l125 -341l123 340zM179 596q-24 0 -41.5 16
t-17.5 41q0 24 17.5 40.5t41.5 16.5q25 0 42.5 -16.5t17.5 -40.5q0 -25 -17.5 -41t-42.5 -16zM389 596q-25 0 -42.5 16t-17.5 41q0 24 17.5 40.5t42.5 16.5q24 0 41.5 -16.5t17.5 -40.5q0 -25 -17.5 -41t-41.5 -16z" />
    <glyph glyph-name="Amacron" unicode="&#x100;" horiz-adv-x="664" 
d="M309 562l-101 -298h201zM5 0v41l84 13l213 620h63l213 -624l75 -9v-41h-272v41l98 12l-55 164h-232l-56 -163l98 -13v-41h-229zM181 758v63h302v-63h-302z" />
    <glyph glyph-name="amacron" unicode="&#x101;" horiz-adv-x="509" 
d="M416 -10q-36 0 -60 21t-30 56q-41 -40 -72 -60t-75 -20q-55 0 -94.5 31.5t-39.5 93.5q0 29 13.5 54t49.5 49t103 48q23 8 53 17t60 16v25q0 73 -22 97t-72 24q-11 0 -24.5 -1t-29.5 -5l-19 -65q-14 -48 -52 -48q-42 0 -47 41q14 57 66.5 90.5t128.5 33.5q79 0 117 -39.5
t38 -134.5v-213q0 -32 10 -45.5t26 -13.5q13 0 22 6t17 16l20 -22q-18 -29 -39.5 -40.5t-47.5 -11.5zM134 127q0 -40 23 -57t57 -17q15 0 28.5 4t32.5 15.5t49 33.5v153q-26 -7 -51 -15.5t-41 -14.5q-43 -17 -64 -35t-27.5 -35t-6.5 -32zM126 596v63h262v-63h-262z" />
    <glyph glyph-name="Abreve" unicode="&#x102;" horiz-adv-x="664" 
d="M309 562l-101 -298h201zM5 0v41l84 13l213 620h63l213 -624l75 -9v-41h-272v41l98 12l-55 164h-232l-56 -163l98 -13v-41h-229zM191 848l31 11q11 -34 40 -55.5t73 -21.5q45 0 72.5 21.5t40.5 55.5l31 -11q-4 -30 -21 -59t-47.5 -48.5t-75.5 -19.5t-75.5 19.5t-47 48.5
t-21.5 59z" />
    <glyph glyph-name="abreve" unicode="&#x103;" horiz-adv-x="509" 
d="M416 -10q-36 0 -60 21t-30 56q-41 -40 -72 -60t-75 -20q-55 0 -94.5 31.5t-39.5 93.5q0 29 13.5 54t49.5 49t103 48q23 8 53 17t60 16v25q0 73 -22 97t-72 24q-11 0 -24.5 -1t-29.5 -5l-19 -65q-14 -48 -52 -48q-42 0 -47 41q14 57 66.5 90.5t128.5 33.5q79 0 117 -39.5
t38 -134.5v-213q0 -32 10 -45.5t26 -13.5q13 0 22 6t17 16l20 -22q-18 -29 -39.5 -40.5t-47.5 -11.5zM134 127q0 -40 23 -57t57 -17q15 0 28.5 4t32.5 15.5t49 33.5v153q-26 -7 -51 -15.5t-41 -14.5q-43 -17 -64 -35t-27.5 -35t-6.5 -32zM106 723l30 11q15 -39 43.5 -66
t77.5 -27q50 0 78 27t43 66l30 -11q-4 -38 -22.5 -72t-50.5 -55t-78 -21t-78 21t-50 55t-23 72z" />
    <glyph glyph-name="Aogonek" unicode="&#x104;" horiz-adv-x="664" 
d="M309 562l-101 -298h201zM5 0v41l84 13l213 620h63l213 -624l75 -9v-41h-272v41l98 12l-55 164h-232l-56 -163l98 -13v-41h-229zM449 -132q0 46 30.5 85.5t70.5 59.5h29q-31 -20 -48.5 -49.5t-17.5 -59.5q0 -32 19.5 -50t47.5 -18q10 0 24 3t29 12l13 -25
q-18 -25 -47 -35.5t-56 -10.5q-41 0 -67.5 23.5t-26.5 64.5z" />
    <glyph glyph-name="aogonek" unicode="&#x105;" horiz-adv-x="509" 
d="M329 -132q0 38 26 69.5t61 51.5q-40 2 -62 23t-28 55q-41 -40 -72 -60t-75 -20q-55 0 -94.5 31.5t-39.5 93.5q0 29 13.5 54t49.5 49t103 48q23 8 53 17t60 16v25q0 73 -22 97t-72 24q-10 0 -23 -1t-28 -5l-20 -69q-14 -48 -54 -48q-21 0 -33 12t-14 31q14 57 66.5 91.5
t128.5 34.5q79 0 117 -39.5t38 -134.5v-211q0 -61 33 -61q12 0 22 6t20 16l20 -24q-12 -14 -21.5 -23t-25.5 -22q-25 -19 -44.5 -42t-19.5 -49q0 -32 19.5 -50t48.5 -18q11 0 24.5 3t27.5 12l12 -23q-18 -25 -45 -36.5t-59 -11.5q-40 0 -65.5 23.5t-25.5 64.5zM134 127
q0 -40 23 -57t57 -17q17 0 31 4.5t32.5 16t46.5 31.5v154q-26 -7 -51 -15.5t-41 -14.5q-43 -17 -64 -35t-27.5 -35t-6.5 -32z" />
    <glyph glyph-name="Cacute" unicode="&#x106;" horiz-adv-x="631" 
d="M386 -15q-101 0 -177.5 44.5t-119 123.5t-42.5 182q0 76 25.5 139.5t71 110.5t107 73t134.5 26q41 0 92 -9.5t101 -38.5l4 -145h-62l-20 116q-27 15 -52.5 21t-49.5 6q-67 0 -122 -34t-87.5 -100.5t-32.5 -164.5t30 -165t83.5 -101t121.5 -34q29 0 59.5 6.5t59.5 20.5
l20 116h62l-4 -145q-46 -25 -97.5 -36.5t-104.5 -11.5zM320 745q46 49 94 94q21 21 35 29.5t27 8.5q16 0 27 -9.5t11 -24.5q0 -13 -10.5 -26t-39.5 -29q-31 -17 -62.5 -34t-63.5 -34z" />
    <glyph glyph-name="cacute" unicode="&#x107;" horiz-adv-x="488" 
d="M267 -13q-103 0 -164 67t-61 182q0 79 32.5 135.5t85.5 86.5t113 30q45 0 83 -17t63 -46.5t31 -66.5q-7 -38 -46 -38q-25 0 -37.5 13.5t-17.5 34.5l-18 66q-14 5 -27.5 6.5t-26.5 1.5q-64 0 -105.5 -50t-41.5 -146q0 -94 45 -144t115 -50q43 0 79 19.5t59 56.5l25 -13
q-21 -62 -68 -95t-118 -33zM234 576q42 71 89 141q14 23 27.5 32t26.5 9q14 0 26 -9t12 -29q0 -10 -6.5 -22.5t-27.5 -32.5q-31 -28 -60.5 -54.5t-60.5 -53.5z" />
    <glyph glyph-name="Ccircumflex" unicode="&#x108;" horiz-adv-x="631" 
d="M386 -15q-101 0 -177.5 44.5t-119 123.5t-42.5 182q0 76 25.5 139.5t71 110.5t107 73t134.5 26q41 0 92 -9.5t101 -38.5l4 -145h-62l-20 116q-27 15 -52.5 21t-49.5 6q-67 0 -122 -34t-87.5 -100.5t-32.5 -164.5t30 -165t83.5 -101t121.5 -34q29 0 59.5 6.5t59.5 20.5
l20 116h62l-4 -145q-46 -25 -97.5 -36.5t-104.5 -11.5zM395 856l131 -115l-19 -25l-129 74l-129 -74l-19 25l131 115h34z" />
    <glyph glyph-name="ccircumflex" unicode="&#x109;" horiz-adv-x="488" 
d="M267 -13q-103 0 -164 67t-61 182q0 79 32.5 135.5t85.5 86.5t113 30q45 0 83 -17t63 -46.5t31 -66.5q-7 -38 -46 -38q-25 0 -37.5 13.5t-17.5 34.5l-18 66q-14 5 -27.5 6.5t-26.5 1.5q-64 0 -105.5 -50t-41.5 -146q0 -94 45 -144t115 -50q43 0 79 19.5t59 56.5l25 -13
q-21 -62 -68 -95t-118 -33zM392 546l-126 114l-126 -114l-23 22l132 176h34l132 -176z" />
    <glyph glyph-name="Cdotaccent" unicode="&#x10a;" horiz-adv-x="631" 
d="M386 -15q-101 0 -177.5 44.5t-119 123.5t-42.5 182q0 76 25.5 139.5t71 110.5t107 73t134.5 26q41 0 92 -9.5t101 -38.5l4 -145h-62l-20 116q-27 15 -52.5 21t-49.5 6q-67 0 -122 -34t-87.5 -100.5t-32.5 -164.5t30 -165t83.5 -101t121.5 -34q29 0 59.5 6.5t59.5 20.5
l20 116h62l-4 -145q-46 -25 -97.5 -36.5t-104.5 -11.5zM371 736q-28 0 -47.5 18t-19.5 46q0 29 19.5 46.5t47.5 17.5q29 0 48 -17.5t19 -46.5q0 -28 -19 -46t-48 -18z" />
    <glyph glyph-name="cdotaccent" unicode="&#x10b;" horiz-adv-x="488" 
d="M267 -13q-103 0 -164 67t-61 182q0 79 32.5 135.5t85.5 86.5t113 30q45 0 83 -17t63 -46.5t31 -66.5q-7 -38 -46 -38q-25 0 -37.5 13.5t-17.5 34.5l-18 66q-14 5 -27.5 6.5t-26.5 1.5q-64 0 -105.5 -50t-41.5 -146q0 -94 45 -144t115 -50q43 0 79 19.5t59 56.5l25 -13
q-21 -62 -68 -95t-118 -33zM274 589q-28 0 -47.5 18t-19.5 46t19.5 46t47.5 18q29 0 48 -18t19 -46t-19 -46t-48 -18z" />
    <glyph glyph-name="Ccaron" unicode="&#x10c;" horiz-adv-x="631" 
d="M386 -15q-101 0 -177.5 44.5t-119 123.5t-42.5 182q0 76 25.5 139.5t71 110.5t107 73t134.5 26q41 0 92 -9.5t101 -38.5l4 -145h-62l-20 116q-27 15 -52.5 21t-49.5 6q-67 0 -122 -34t-87.5 -100.5t-32.5 -164.5t30 -165t83.5 -101t121.5 -34q29 0 59.5 6.5t59.5 20.5
l20 116h62l-4 -145q-46 -25 -97.5 -36.5t-104.5 -11.5zM271 868l115 -85l115 85l24 -21l-102 -118h-74l-102 118z" />
    <glyph glyph-name="ccaron" unicode="&#x10d;" horiz-adv-x="488" 
d="M267 -13q-103 0 -164 67t-61 182q0 79 32.5 135.5t85.5 86.5t113 30q45 0 83 -17t63 -46.5t31 -66.5q-7 -38 -46 -38q-25 0 -37.5 13.5t-17.5 34.5l-18 66q-14 5 -27.5 6.5t-26.5 1.5q-64 0 -105.5 -50t-41.5 -146q0 -94 45 -144t115 -50q43 0 79 19.5t59 56.5l25 -13
q-21 -62 -68 -95t-118 -33zM159 739l115 -105l115 105l24 -20l-102 -148h-74l-102 148z" />
    <glyph glyph-name="Dcaron" unicode="&#x10e;" horiz-adv-x="710" 
d="M233 322q0 -73 0.5 -141t1.5 -134h79q116 0 178 75.5t62 211.5q0 141 -61 215t-170 74h-88q-1 -64 -1.5 -130.5t-0.5 -133.5v-37zM44 628v41h295q96 0 169 -38.5t114 -113t41 -183.5q0 -108 -45 -182.5t-122.5 -113t-175.5 -38.5h-276v41l92 11q2 64 2 130.5v139.5v37
v129.5t-2 128.5zM232 868l115 -85l115 85l24 -21l-102 -118h-74l-102 118z" />
    <glyph glyph-name="dcaron" unicode="&#x10f;" horiz-adv-x="601" 
d="M135 235q0 -98 39.5 -144.5t99.5 -46.5q33 0 58.5 13.5t53.5 44.5v277q-34 30 -61 41t-52 11q-37 0 -68.5 -20.5t-50.5 -64t-19 -111.5zM396 -10l-7 69q-26 -34 -59.5 -53t-80.5 -19q-61 0 -107 31t-71.5 86.5t-25.5 128.5q0 77 28 134t76 89t109 32q35 0 67.5 -14
t63.5 -51v226l-85 10v35l156 45l14 -8l-4 -142v-541l81 -12v-36zM608 750q20 0 28 -10t8 -27q0 -22 -11 -59t-23 -72l-19 -54h-32l3 209q23 13 46 13z" />
    <glyph glyph-name="Dcroat" unicode="&#x110;" horiz-adv-x="710" 
d="M386 319h-153q0 -76 0.5 -142.5t1.5 -129.5h79q116 0 178 75.5t62 211.5q0 141 -61 215t-170 74h-88q-1 -64 -1.5 -129.5t-0.5 -127.5h153v-47zM44 628v41h295q96 0 169 -38.5t114 -113t41 -183.5q0 -108 -45 -182.5t-122.5 -113t-175.5 -38.5h-276v41l92 11
q2 64 2 130.5v136.5h-94v47h94v128t-2 123z" />
    <glyph glyph-name="dcroat" unicode="&#x111;" horiz-adv-x="567" 
d="M135 225q0 -93 39.5 -137t99.5 -44q32 0 58 13.5t54 44.5v263q-34 30 -61 41.5t-50 11.5q-57 0 -98.5 -48t-41.5 -145zM204 543v46h185v65l-85 5v35l156 45l14 -8l-4 -142h82v-46h-82v-494l81 -13v-36l-155 -10l-7 70q-55 -73 -140 -73q-61 0 -107 30t-71.5 83t-25.5 123
q0 74 27.5 130.5t75.5 89t107 32.5q40 0 71.5 -14.5t62.5 -50.5v133h-185z" />
    <glyph glyph-name="Emacron" unicode="&#x112;" horiz-adv-x="603" 
d="M44 628v41h498l7 -177h-57l-22 127h-235q-1 -64 -1.5 -128t-0.5 -126h147l14 95h46v-236h-46l-13 94h-148q0 -75 0.5 -140.5t1.5 -127.5h255l22 128h57l-7 -178h-518v41l92 11q2 63 2 128v130v49v129.5t-2 128.5zM190 758v63h302v-63h-302z" />
    <glyph glyph-name="emacron" unicode="&#x113;" horiz-adv-x="510" 
d="M269 442q-28 0 -56.5 -16t-49 -51t-26.5 -93h182q36 0 47.5 15t11.5 37q0 29 -14.5 53.5t-39 39.5t-55.5 15zM268 -13q-101 0 -162 65.5t-61 180.5q0 77 31.5 134t84 89t114.5 32q52 0 94 -23t67 -65.5t25 -103.5q0 -17 -2 -31.5t-5 -24.5h-319q2 -92 46 -140t116 -48
q48 0 80 19.5t59 50.5l24 -19q-28 -53 -76 -84.5t-116 -31.5zM136 596v63h262v-63h-262z" />
    <glyph glyph-name="Ebreve" unicode="&#x114;" horiz-adv-x="603" 
d="M44 628v41h498l7 -177h-57l-22 127h-235q-1 -64 -1.5 -128t-0.5 -126h147l14 95h46v-236h-46l-13 94h-148q0 -75 0.5 -140.5t1.5 -127.5h255l22 128h57l-7 -178h-518v41l92 11q2 63 2 128v130v49v129.5t-2 128.5zM178 858l31 11q11 -34 40 -55.5t73 -21.5q45 0 72.5 21.5
t40.5 55.5l31 -11q-4 -30 -21 -59t-47.5 -48.5t-75.5 -19.5t-75.5 19.5t-47 48.5t-21.5 59z" />
    <glyph glyph-name="ebreve" unicode="&#x115;" horiz-adv-x="510" 
d="M269 442q-28 0 -56.5 -16t-49 -51t-26.5 -93h182q36 0 47.5 15t11.5 37q0 29 -14.5 53.5t-39 39.5t-55.5 15zM268 -13q-101 0 -162 65.5t-61 180.5q0 77 31.5 134t84 89t114.5 32q52 0 94 -23t67 -65.5t25 -103.5q0 -17 -2 -31.5t-5 -24.5h-319q2 -92 46 -140t116 -48
q48 0 80 19.5t59 50.5l24 -19q-28 -53 -76 -84.5t-116 -31.5zM116 723l30 11q15 -39 43.5 -66t77.5 -27q50 0 78 27t43 66l30 -11q-4 -38 -22.5 -72t-50.5 -55t-78 -21t-78 21t-50 55t-23 72z" />
    <glyph glyph-name="Edotaccent" unicode="&#x116;" horiz-adv-x="603" 
d="M44 628v41h498l7 -177h-57l-22 127h-235q-1 -64 -1.5 -128t-0.5 -126h147l14 95h46v-236h-46l-13 94h-148q0 -75 0.5 -140.5t1.5 -127.5h255l22 128h57l-7 -178h-518v41l92 11q2 63 2 128v130v49v129.5t-2 128.5zM331 736q-28 0 -47.5 18t-19.5 46q0 29 19.5 46.5
t47.5 17.5q29 0 48 -17.5t19 -46.5q0 -28 -19 -46t-48 -18z" />
    <glyph glyph-name="edotaccent" unicode="&#x117;" horiz-adv-x="510" 
d="M269 442q-28 0 -56.5 -16t-49 -51t-26.5 -93h182q36 0 47.5 15t11.5 37q0 29 -14.5 53.5t-39 39.5t-55.5 15zM268 -13q-101 0 -162 65.5t-61 180.5q0 77 31.5 134t84 89t114.5 32q52 0 94 -23t67 -65.5t25 -103.5q0 -17 -2 -31.5t-5 -24.5h-319q2 -92 46 -140t116 -48
q48 0 80 19.5t59 50.5l24 -19q-28 -53 -76 -84.5t-116 -31.5zM273 589q-28 0 -47.5 18t-19.5 46t19.5 46t47.5 18q29 0 48 -18t19 -46t-19 -46t-48 -18z" />
    <glyph glyph-name="Eogonek" unicode="&#x118;" horiz-adv-x="603" 
d="M44 628v41h498l7 -177h-57l-22 127h-235q-1 -64 -1.5 -128t-0.5 -126h147l14 95h46v-236h-46l-13 94h-148q0 -75 0.5 -140.5t1.5 -127.5h255l22 128h57l-7 -178h-518v41l92 11q2 63 2 128v130v49v129.5t-2 128.5zM373 -132q0 46 30.5 85.5t70.5 59.5h29
q-31 -20 -48.5 -49.5t-17.5 -59.5q0 -32 19.5 -50t47.5 -18q10 0 24 3t29 12l13 -25q-18 -25 -47 -35.5t-56 -10.5q-41 0 -67.5 23.5t-26.5 64.5z" />
    <glyph glyph-name="eogonek" unicode="&#x119;" horiz-adv-x="510" 
d="M268 442q-27 0 -55 -15.5t-49 -50.5t-27 -94h182q36 0 47.5 13.5t11.5 38.5q0 29 -14.5 53.5t-39 39.5t-56.5 15zM253 -132q0 35 18.5 67.5t46.5 55.5q-13 -2 -25.5 -3t-24.5 -1q-101 0 -162 65.5t-61 183.5q0 75 31.5 132t83.5 88.5t114 31.5q53 0 95 -23t67 -66
t25 -104q0 -16 -2 -30.5t-5 -24.5h-319q1 -91 45.5 -139.5t117.5 -48.5q47 0 78.5 19t59.5 51l24 -19q-14 -29 -31.5 -49t-45.5 -41q-30 -24 -48.5 -51.5t-18.5 -57.5q0 -32 19.5 -50t49.5 -18q10 0 23.5 3t28.5 12l12 -23q-19 -25 -45.5 -36.5t-59.5 -11.5
q-40 0 -65.5 23.5t-25.5 64.5z" />
    <glyph glyph-name="Ecaron" unicode="&#x11a;" horiz-adv-x="603" 
d="M44 628v41h498l7 -177h-57l-22 127h-235q-1 -64 -1.5 -128t-0.5 -126h147l14 95h46v-236h-46l-13 94h-148q0 -75 0.5 -140.5t1.5 -127.5h255l22 128h57l-7 -178h-518v41l92 11q2 63 2 128v130v49v129.5t-2 128.5zM225 868l115 -85l115 85l24 -21l-102 -118h-74l-102 118z
" />
    <glyph glyph-name="ecaron" unicode="&#x11b;" horiz-adv-x="510" 
d="M269 442q-28 0 -56.5 -16t-49 -51t-26.5 -93h182q36 0 47.5 15t11.5 37q0 29 -14.5 53.5t-39 39.5t-55.5 15zM268 -13q-101 0 -162 65.5t-61 180.5q0 77 31.5 134t84 89t114.5 32q52 0 94 -23t67 -65.5t25 -103.5q0 -17 -2 -31.5t-5 -24.5h-319q2 -92 46 -140t116 -48
q48 0 80 19.5t59 50.5l24 -19q-28 -53 -76 -84.5t-116 -31.5zM159 739l115 -105l115 105l24 -20l-102 -148h-74l-102 148z" />
    <glyph glyph-name="Gcircumflex" unicode="&#x11c;" horiz-adv-x="682" 
d="M384 -15q-100 0 -176 45.5t-118.5 124.5t-42.5 180t43 179.5t119.5 124t178.5 45.5q62 0 110.5 -11.5t90.5 -35.5l4 -146h-62l-20 114q-52 29 -114 29q-69 0 -123.5 -35t-86 -101.5t-31.5 -162.5q0 -143 66 -221t181 -78q57 0 107 20v32q0 45 -0.5 90.5t-1.5 90.5l-104 9
v40h263v-40l-61 -6q-1 -45 -1.5 -91t-0.5 -93v-44q-52 -27 -105 -43t-115 -16zM403 856l131 -115l-19 -25l-129 74l-129 -74l-19 25l131 115h34z" />
    <glyph glyph-name="gcircumflex" unicode="&#x11d;" horiz-adv-x="518" 
d="M237 200q48 0 75 36t27 91q0 53 -25.5 86.5t-72.5 33.5t-74 -34.5t-27 -89.5t25.5 -89t71.5 -34zM239 160q-39 0 -74 11q-25 -32 -25 -64q0 -20 11.5 -32t46.5 -12h131q83 0 122 -34t39 -95q0 -43 -27.5 -83t-82.5 -65t-137 -25q-109 0 -158 34t-49 87q0 32 21.5 59.5
t76.5 54.5q-66 18 -66 76q0 24 15.5 50t52.5 61q-36 20 -56.5 55t-20.5 86q0 79 51.5 121.5t129.5 42.5q79 0 127 -39l113 39l15 -10v-63h-98q23 -37 23 -91q0 -79 -51.5 -121.5t-129.5 -42.5zM118 -102q0 -49 35 -70t94 -21q82 0 125 29.5t43 71.5q0 33 -23 55.5t-77 22.5
h-117q-10 0 -20.5 0.5t-20.5 1.5q-21 -22 -30 -43.5t-9 -46.5zM363 546l-126 114l-126 -114l-23 22l132 176h34l132 -176z" />
    <glyph glyph-name="Gbreve" unicode="&#x11e;" horiz-adv-x="682" 
d="M384 -15q-100 0 -176 45.5t-118.5 124.5t-42.5 180t43 179.5t119.5 124t178.5 45.5q62 0 110.5 -11.5t90.5 -35.5l4 -146h-62l-20 114q-52 29 -114 29q-69 0 -123.5 -35t-86 -101.5t-31.5 -162.5q0 -143 66 -221t181 -78q57 0 107 20v32q0 45 -0.5 90.5t-1.5 90.5l-104 9
v40h263v-40l-61 -6q-1 -45 -1.5 -91t-0.5 -93v-44q-52 -27 -105 -43t-115 -16zM238 858l31 11q11 -34 40 -55.5t73 -21.5q45 0 72.5 21.5t40.5 55.5l31 -11q-4 -30 -21 -59t-47.5 -48.5t-75.5 -19.5t-75.5 19.5t-47 48.5t-21.5 59z" />
    <glyph glyph-name="gbreve" unicode="&#x11f;" horiz-adv-x="518" 
d="M237 200q48 0 75 36t27 91q0 53 -25.5 86.5t-72.5 33.5t-74 -34.5t-27 -89.5t25.5 -89t71.5 -34zM239 160q-39 0 -74 11q-25 -32 -25 -64q0 -20 11.5 -32t46.5 -12h131q83 0 122 -34t39 -95q0 -43 -27.5 -83t-82.5 -65t-137 -25q-109 0 -158 34t-49 87q0 32 21.5 59.5
t76.5 54.5q-66 18 -66 76q0 24 15.5 50t52.5 61q-36 20 -56.5 55t-20.5 86q0 79 51.5 121.5t129.5 42.5q79 0 127 -39l113 39l15 -10v-63h-98q23 -37 23 -91q0 -79 -51.5 -121.5t-129.5 -42.5zM118 -102q0 -49 35 -70t94 -21q82 0 125 29.5t43 71.5q0 33 -23 55.5t-77 22.5
h-117q-10 0 -20.5 0.5t-20.5 1.5q-21 -22 -30 -43.5t-9 -46.5zM97 723l30 11q15 -39 43.5 -66t77.5 -27q50 0 78 27t43 66l30 -11q-4 -38 -22.5 -72t-50.5 -55t-78 -21t-78 21t-50 55t-23 72z" />
    <glyph glyph-name="Gdotaccent" unicode="&#x120;" horiz-adv-x="682" 
d="M384 -15q-100 0 -176 45.5t-118.5 124.5t-42.5 180t43 179.5t119.5 124t178.5 45.5q62 0 110.5 -11.5t90.5 -35.5l4 -146h-62l-20 114q-52 29 -114 29q-69 0 -123.5 -35t-86 -101.5t-31.5 -162.5q0 -143 66 -221t181 -78q57 0 107 20v32q0 45 -0.5 90.5t-1.5 90.5l-104 9
v40h263v-40l-61 -6q-1 -45 -1.5 -91t-0.5 -93v-44q-52 -27 -105 -43t-115 -16zM388 736q-28 0 -47.5 18t-19.5 46q0 29 19.5 46.5t47.5 17.5q29 0 48 -17.5t19 -46.5q0 -28 -19 -46t-48 -18z" />
    <glyph glyph-name="gdotaccent" unicode="&#x121;" horiz-adv-x="518" 
d="M237 200q48 0 75 36t27 91q0 53 -25.5 86.5t-72.5 33.5t-74 -34.5t-27 -89.5t25.5 -89t71.5 -34zM239 160q-39 0 -74 11q-25 -32 -25 -64q0 -20 11.5 -32t46.5 -12h131q83 0 122 -34t39 -95q0 -43 -27.5 -83t-82.5 -65t-137 -25q-109 0 -158 34t-49 87q0 32 21.5 59.5
t76.5 54.5q-66 18 -66 76q0 24 15.5 50t52.5 61q-36 20 -56.5 55t-20.5 86q0 79 51.5 121.5t129.5 42.5q79 0 127 -39l113 39l15 -10v-63h-98q23 -37 23 -91q0 -79 -51.5 -121.5t-129.5 -42.5zM118 -102q0 -49 35 -70t94 -21q82 0 125 29.5t43 71.5q0 33 -23 55.5t-77 22.5
h-117q-10 0 -20.5 0.5t-20.5 1.5q-21 -22 -30 -43.5t-9 -46.5zM245 589q-28 0 -47.5 18t-19.5 46t19.5 46t47.5 18q29 0 48 -18t19 -46t-19 -46t-48 -18z" />
    <glyph glyph-name="uni0122" unicode="&#x122;" horiz-adv-x="682" 
d="M384 -15q-100 0 -176 45.5t-118.5 124.5t-42.5 180t43 179.5t119.5 124t178.5 45.5q62 0 110.5 -11.5t90.5 -35.5l4 -146h-62l-20 114q-52 29 -114 29q-69 0 -123.5 -35t-86 -101.5t-31.5 -162.5q0 -143 66 -221t181 -78q57 0 107 20v32q0 45 -0.5 90.5t-1.5 90.5l-104 9
v40h263v-40l-61 -6q-1 -45 -1.5 -91t-0.5 -93v-44q-52 -27 -105 -43t-115 -16zM449 -118q0 -34 -19 -60t-49.5 -43.5t-65.5 -29.5l-10 29q27 11 47.5 23.5t36.5 33.5q-20 11 -33.5 28t-13.5 36q0 22 15.5 35.5t36.5 13.5q24 0 46 -19q5 -16 7 -26t2 -21z" />
    <glyph glyph-name="uni0123" unicode="&#x123;" horiz-adv-x="518" 
d="M237 200q48 0 75 36t27 91q0 53 -25.5 86.5t-72.5 33.5t-74 -34.5t-27 -89.5t25.5 -89t71.5 -34zM239 160q-39 0 -74 11q-25 -32 -25 -64q0 -20 11.5 -32t46.5 -12h131q83 0 122 -34t39 -95q0 -43 -27.5 -83t-82.5 -65t-137 -25q-109 0 -158 34t-49 87q0 32 21.5 59.5
t76.5 54.5q-66 18 -66 76q0 24 15.5 50t52.5 61q-36 20 -56.5 55t-20.5 86q0 79 51.5 121.5t129.5 42.5q79 0 127 -39l113 39l15 -10v-63h-98q23 -37 23 -91q0 -79 -51.5 -121.5t-129.5 -42.5zM118 -102q0 -49 35 -70t94 -21q82 0 125 29.5t43 71.5q0 33 -23 55.5t-77 22.5
h-117q-10 0 -20.5 0.5t-20.5 1.5q-21 -22 -30 -43.5t-9 -46.5zM195 638q0 35 19 60.5t49.5 43.5t65.5 29l10 -29q-27 -10 -47.5 -23t-36.5 -34q20 -10 33.5 -27t13.5 -37q0 -22 -15.5 -35.5t-36.5 -13.5q-24 0 -46 19q-5 16 -7 26.5t-2 20.5z" />
    <glyph glyph-name="Hcircumflex" unicode="&#x124;" horiz-adv-x="789" 
d="M462 628v41h282v-41l-92 -11q-1 -63 -1.5 -128t-0.5 -130v-49q0 -64 0.5 -128.5t1.5 -129.5l92 -11v-41h-282v41l92 11q2 64 2 130.5v136.5h-323q0 -76 0.5 -141t1.5 -127l91 -10v-41h-282v41l92 11q2 63 2 128v130v49v129.5t-2 128.5l-92 11v41h282v-41l-91 -10
q-1 -64 -1.5 -128t-0.5 -124h323v128t-2 123zM411 856l131 -115l-19 -25l-129 74l-129 -74l-19 25l131 115h34z" />
    <glyph glyph-name="hcircumflex" unicode="&#x125;" horiz-adv-x="601" 
d="M30 0v36l75 14q1 38 1.5 82.5t0.5 77.5v439l-82 10v35l153 45l14 -8l-4 -142v-193q37 41 86 66.5t97 25.5q65 0 96.5 -43.5t31.5 -141.5v-93q0 -34 0.5 -78t1.5 -82l70 -14v-36h-232v36l73 13q1 38 1.5 82.5t0.5 78.5v85q0 69 -19 95t-63 26q-37 0 -70 -15t-71 -50v-141
q0 -33 0.5 -77.5t1.5 -82.5l69 -14v-36h-232zM299 899l131 -115l-19 -25l-129 74l-129 -74l-19 25l131 115h34z" />
    <glyph glyph-name="Hbar" unicode="&#x126;" horiz-adv-x="789" 
d="M138 310v49v53.5v53.5h-108v46h108q-1 26 -1 52.5t-1 52.5l-92 11v41h282v-41l-91 -10q-1 -26 -1 -53t-1 -53h323q-1 26 -1 52.5t-1 52.5l-92 11v41h282v-41l-92 -11q-1 -25 -1 -52t-1 -53h109v-46h-109v-53v-54v-49q0 -64 0.5 -128.5t1.5 -129.5l92 -11v-41h-282v41
l92 11q2 57 2 118v129h-323q0 -67 0.5 -128t1.5 -120l91 -10v-41h-282v41l92 11q2 63 2 128v130zM233 360v-14h323v14v53v53h-323v-53v-53z" />
    <glyph glyph-name="hbar" unicode="&#x127;" horiz-adv-x="601" 
d="M30 0v36l75 14q1 38 1.5 82.5t0.5 77.5v328h-82v46h82v65l-82 10v35l153 45l14 -8l-4 -147h184v-46h-184v-166q37 41 86.5 67t96.5 26q65 0 96.5 -43.5t31.5 -141.5v-70q0 -34 0.5 -78t1.5 -82l70 -14v-36h-232v36l73 13q1 38 1.5 82.5t0.5 78.5v62q0 68 -19 94.5
t-63 26.5q-37 0 -70 -15t-71 -50v-118q0 -33 0.5 -77.5t1.5 -82.5l69 -14v-36h-232z" />
    <glyph glyph-name="Itilde" unicode="&#x128;" horiz-adv-x="371" 
d="M44 628v41h283v-41l-92 -11q-1 -63 -1.5 -128t-0.5 -130v-49q0 -64 0.5 -128.5t1.5 -129.5l92 -11v-41h-283v41l92 11q2 63 2 128v130v49v129.5t-2 128.5zM5 734q9 59 34 94t71 35q27 0 46 -10.5t38 -26.5q17 -13 34 -29t39 -16q25 0 41 21.5t27 58.5l30 -10
q-10 -58 -34 -93t-70 -35q-28 0 -46.5 10t-35.5 23q-19 16 -36 32t-40 16q-24 0 -40.5 -21t-27.5 -58z" />
    <glyph glyph-name="itilde" unicode="&#x129;" horiz-adv-x="298" 
d="M35 0v36l74 14q1 38 1.5 82t0.5 78v47q0 41 -0.5 68.5t-2.5 57.5l-79 9v35l155 61l15 -10l-3 -136v-132q0 -33 0.5 -77.5t1.5 -82.5l69 -14v-36h-232zM-14 586q8 59 31 94t64 35q25 0 42 -10t31 -24q18 -17 33.5 -32.5t35.5 -15.5q23 0 37.5 21.5t24.5 58.5l27 -10
q-9 -58 -31 -93t-64 -35q-25 0 -41.5 9.5t-31.5 23.5q-16 17 -32.5 32.5t-36.5 15.5q-22 0 -36.5 -21t-25.5 -58z" />
    <glyph glyph-name="Imacron" unicode="&#x12a;" horiz-adv-x="371" 
d="M44 628v41h283v-41l-92 -11q-1 -63 -1.5 -128t-0.5 -130v-49q0 -64 0.5 -128.5t1.5 -129.5l92 -11v-41h-283v41l92 11q2 63 2 128v130v49v129.5t-2 128.5zM35 758v63h302v-63h-302z" />
    <glyph glyph-name="imacron" unicode="&#x12b;" horiz-adv-x="298" 
d="M35 0v36l74 14q1 38 1.5 82t0.5 78v47q0 41 -0.5 68.5t-2.5 57.5l-79 9v35l155 61l15 -10l-3 -136v-132q0 -33 0.5 -77.5t1.5 -82.5l69 -14v-36h-232zM11 596v63h262v-63h-262z" />
    <glyph glyph-name="Iogonek" unicode="&#x12e;" horiz-adv-x="371" 
d="M44 628v41h283v-41l-92 -11q-1 -63 -1.5 -128t-0.5 -130v-49q0 -64 0.5 -128.5t1.5 -129.5l92 -11v-41h-283v41l92 11q2 63 2 128v130v49v129.5t-2 128.5zM110 -132q0 46 30.5 85.5t70.5 59.5h29q-31 -20 -48.5 -49.5t-17.5 -59.5q0 -32 19.5 -50t47.5 -18q10 0 24 3
t29 12l13 -25q-18 -25 -47 -35.5t-56 -10.5q-41 0 -67.5 23.5t-26.5 64.5z" />
    <glyph glyph-name="iogonek" unicode="&#x12f;" horiz-adv-x="298" 
d="M35 0v36l75 14q1 38 1.5 82.5t0.5 77.5v47q0 41 -0.5 68.5t-2.5 57.5l-80 9v35l154 61l15 -10l-3 -136v-132q0 -33 0.5 -77.5t1.5 -82.5l70 -14v-36h-232zM153 598q-28 0 -47.5 18t-19.5 46q0 29 19.5 46.5t47.5 17.5t47.5 -17.5t19.5 -46.5q0 -28 -19.5 -46t-47.5 -18z
M73 -132q0 46 30.5 85.5t70.5 59.5h29q-31 -20 -48.5 -49.5t-17.5 -59.5q0 -32 19.5 -50t47.5 -18q10 0 24 3t29 12l13 -25q-18 -25 -47 -35.5t-56 -10.5q-41 0 -67.5 23.5t-26.5 64.5z" />
    <glyph glyph-name="Idotaccent" unicode="&#x130;" horiz-adv-x="371" 
d="M44 628v41h283v-41l-92 -11q-1 -63 -1.5 -128t-0.5 -130v-49q0 -64 0.5 -128.5t1.5 -129.5l92 -11v-41h-283v41l92 11q2 63 2 128v130v49v129.5t-2 128.5zM186 736q-28 0 -47.5 18t-19.5 46q0 29 19.5 46.5t47.5 17.5q29 0 48 -17.5t19 -46.5q0 -28 -19 -46t-48 -18z" />
    <glyph glyph-name="dotlessi" unicode="&#x131;" horiz-adv-x="298" 
d="M35 0v36l74 14q1 38 1.5 82t0.5 78v47q0 41 -0.5 68.5t-2.5 57.5l-79 9v35l155 61l15 -10l-3 -136v-132q0 -33 0.5 -77.5t1.5 -82.5l69 -14v-36h-232z" />
    <glyph glyph-name="Jcircumflex" unicode="&#x134;" horiz-adv-x="374" 
d="M47 628v41h293v-41l-92 -11q-1 -63 -1.5 -127.5t-0.5 -129.5v-156q0 -76 -2.5 -127t-9.5 -85t-19.5 -57t-33.5 -44q-25 -25 -60.5 -39.5t-76.5 -14.5q-28 0 -53.5 10.5t-33.5 38.5q5 28 21.5 39t40.5 11q34 0 75 -31l25 -20q22 21 30.5 50t8.5 72q0 18 -0.5 44t-1.5 68
t-2 107t-2.5 161t-2.5 230zM216 856l131 -115l-19 -25l-129 74l-129 -74l-19 25l131 115h34z" />
    <glyph glyph-name="jcircumflex" unicode="&#x135;" horiz-adv-x="277" 
d="M6 -249q-45 0 -66.5 19t-22.5 38q13 41 59 41q20 0 38 -7.5t37 -22.5l23 -17q11 11 16 27q12 32 16.5 96.5t4.5 176.5v155q0 41 -0.5 68.5t-2.5 57.5l-79 9v35l151 61l15 -10l-3 -136v-242q0 -81 -4 -137t-17.5 -93.5t-40.5 -64.5q-26 -26 -53 -40t-71 -14zM265 546
l-126 114l-126 -114l-23 22l132 176h34l132 -176z" />
    <glyph glyph-name="uni0136" unicode="&#x136;" horiz-adv-x="667" 
d="M44 628v41h282v-41l-95 -11q-1 -64 -1.5 -128.5t-0.5 -129.5v-63l260 318l-72 14v41h230v-41l-97 -13l-167 -201l202 -363l77 -10v-41h-257v41l82 10l-159 297l-99 -119q0 -40 0.5 -85t1.5 -92l95 -11v-41h-282v41l92 11q2 63 2 128v130v49v129.5t-2 128.5zM415 -118
q0 -34 -19 -60t-49.5 -43.5t-65.5 -29.5l-10 29q27 11 47.5 23.5t36.5 33.5q-20 11 -33.5 28t-13.5 36q0 22 15.5 35.5t36.5 13.5q24 0 46 -19q5 -16 7 -26t2 -21z" />
    <glyph glyph-name="uni0137" unicode="&#x137;" horiz-adv-x="547" 
d="M25 0v36l80 14q1 40 1.5 80.5t0.5 79.5v439l-82 10v35l156 45l14 -8l-4 -142v-349l171 178l-74 18v39h233v-39l-94 -14l-110 -113l164 -261l66 -12v-36h-136l-154 248l-66 -68q0 -32 0.5 -65t1.5 -65l80 -14v-36h-248zM346 -118q0 -34 -19 -60t-49.5 -43.5t-65.5 -29.5
l-10 29q27 11 47.5 23.5t36.5 33.5q-20 11 -33.5 28t-13.5 36q0 22 15.5 35.5t36.5 13.5q24 0 46 -19q5 -16 7 -26t2 -21z" />
    <glyph glyph-name="kgreenlandic" unicode="&#x138;" horiz-adv-x="557" 
d="M40 0v36l74 14q1 38 1.5 82t0.5 78v48q0 41 -0.5 68t-2.5 57l-79 9v35l154 61l16 -10l-3 -116v-121l172 178l-74 17v39h232v-39l-94 -14l-111 -113l165 -261l65 -12v-36h-136l-153 248l-66 -67q0 -31 0.5 -66t1.5 -65l69 -14v-36h-232z" />
    <glyph glyph-name="Lacute" unicode="&#x139;" horiz-adv-x="596" 
d="M44 628v41h283v-41l-92 -11q-1 -64 -1.5 -128.5t-0.5 -129.5v-69q0 -53 0.5 -114.5t1.5 -125.5h227l29 138h61l-10 -188h-498v41l92 11q2 65 2 129v128v50v130t-2 128zM186 745q46 49 94 94q21 21 35 29.5t27 8.5q16 0 27 -9.5t11 -24.5q0 -13 -10.5 -26t-39.5 -29
q-31 -17 -62.5 -34t-63.5 -34z" />
    <glyph glyph-name="lacute" unicode="&#x13a;" horiz-adv-x="298" 
d="M25 0v36l80 14q1 41 1.5 80.5t0.5 79.5v439l-82 10v35l156 45l14 -8l-4 -142v-379q0 -40 0.5 -80t1.5 -80l80 -14v-36h-248zM93 786q46 49 94 94q21 21 35 29.5t27 8.5q16 0 27 -9.5t11 -24.5q0 -13 -10.5 -26t-39.5 -29q-31 -17 -62.5 -34t-63.5 -34z" />
    <glyph glyph-name="uni013B" unicode="&#x13b;" horiz-adv-x="596" 
d="M44 628v41h283v-41l-92 -11q-1 -64 -1.5 -128.5t-0.5 -129.5v-69q0 -53 0.5 -114.5t1.5 -125.5h227l29 138h61l-10 -188h-498v41l92 11q2 65 2 129v128v50v130t-2 128zM365 -118q0 -34 -19 -60t-49.5 -43.5t-65.5 -29.5l-10 29q27 11 47.5 23.5t36.5 33.5
q-20 11 -33.5 28t-13.5 36q0 22 15.5 35.5t36.5 13.5q24 0 46 -19q5 -16 7 -26t2 -21z" />
    <glyph glyph-name="uni013C" unicode="&#x13c;" horiz-adv-x="298" 
d="M25 0v36l80 14q1 41 1.5 80.5t0.5 79.5v439l-82 10v35l156 45l14 -8l-4 -142v-379q0 -40 0.5 -80t1.5 -80l80 -14v-36h-248zM203 -118q0 -34 -19 -60t-49.5 -43.5t-65.5 -29.5l-10 29q27 11 47.5 23.5t36.5 33.5q-20 11 -33.5 28t-13.5 36q0 22 15.5 35.5t36.5 13.5
q24 0 46 -19q5 -16 7 -26t2 -21z" />
    <glyph glyph-name="Lcaron" unicode="&#x13d;" horiz-adv-x="596" 
d="M44 628v41h283v-41l-92 -11q-1 -64 -1.5 -128.5t-0.5 -129.5v-69q0 -53 0.5 -114.5t1.5 -125.5h227l29 138h61l-10 -188h-498v41l92 11q2 65 2 129v128v50v130t-2 128zM479 739q20 0 28 -10t8 -27q0 -22 -11 -59t-23 -72l-19 -54h-32l3 209q23 13 46 13z" />
    <glyph glyph-name="lcaron" unicode="&#x13e;" horiz-adv-x="322" 
d="M25 0v36l80 14q1 41 1.5 80.5t0.5 79.5v439l-82 10v35l156 45l14 -8l-4 -142v-379q0 -40 0.5 -80t1.5 -80l80 -14v-36h-248zM329 750q20 0 28 -10t8 -27q0 -22 -11 -59t-23 -72l-19 -54h-32l3 209q23 13 46 13z" />
    <glyph glyph-name="Ldot" unicode="&#x13f;" horiz-adv-x="596" 
d="M44 628v41h283v-41l-92 -11q-1 -64 -1.5 -128.5t-0.5 -129.5v-69q0 -53 0.5 -114.5t1.5 -125.5h227l29 138h61l-10 -188h-498v41l92 11q2 65 2 129v128v50v130t-2 128zM471 310q-30 0 -50.5 21t-20.5 50q0 30 20.5 51t50.5 21t50.5 -21t20.5 -51q0 -29 -20.5 -50
t-50.5 -21z" />
    <glyph glyph-name="ldot" unicode="&#x140;" horiz-adv-x="313" 
d="M25 0v36l80 14q1 41 1.5 80.5t0.5 79.5v439l-82 10v35l156 45l14 -8l-4 -142v-379q0 -40 0.5 -80t1.5 -80l80 -14v-36h-248zM305 299q-30 0 -50.5 21t-20.5 50q0 30 20.5 51t50.5 21t50.5 -21t20.5 -51q0 -29 -20.5 -50t-50.5 -21z" />
    <glyph glyph-name="Lslash" unicode="&#x141;" horiz-adv-x="596" 
d="M44 628v41h283v-41l-92 -11q-1 -64 -1.5 -127.5t-0.5 -122.5l163 93v-51l-163 -94v-25q0 -53 0.5 -114.5t1.5 -125.5h227l29 138h61l-10 -188h-498v41l92 11q2 53 2 107v108l-94 -53v51l94 53v41v130t-2 128z" />
    <glyph glyph-name="lslash" unicode="&#x142;" horiz-adv-x="298" 
d="M25 0v36l80 14q1 41 1.5 80.5t0.5 79.5v133l-82 -43v50l82 43v256l-82 10v35l156 45l14 -8l-4 -142v-158l82 43v-50l-82 -43v-171q0 -40 0.5 -80t1.5 -80l80 -14v-36h-248z" />
    <glyph glyph-name="Nacute" unicode="&#x143;" horiz-adv-x="735" 
d="M454 628v41h241v-41l-85 -13v-622h-35l-400 545v-483l106 -14v-41h-242v41l85 12v555l-9 12l-71 8v41h154l361 -496v442zM310 731q46 49 94 94q21 21 35 29.5t27 8.5q16 0 27 -9.5t11 -24.5q0 -13 -10.5 -26t-39.5 -29q-31 -17 -62.5 -34t-63.5 -34z" />
    <glyph glyph-name="nacute" unicode="&#x144;" horiz-adv-x="606" 
d="M40 0v36l74 14q1 38 1.5 82t0.5 78v48q0 41 -0.5 68t-2.5 57l-79 9v35l140 61l15 -10l8 -80q37 40 85 65t94 25q65 0 96.5 -43.5t31.5 -141.5v-93q0 -34 0.5 -78t1.5 -82l70 -14v-36h-232v36l74 14q1 37 1.5 81.5t0.5 78.5v85q0 69 -19.5 95t-63.5 26q-34 0 -66 -14
t-70 -46v-146q0 -33 0.5 -77.5t1.5 -82.5l69 -14v-36h-232zM284 576q42 71 89 141q14 23 27.5 32t26.5 9q14 0 26 -9t12 -29q0 -10 -6.5 -22.5t-27.5 -32.5q-31 -28 -60.5 -54.5t-60.5 -53.5z" />
    <glyph glyph-name="uni0145" unicode="&#x145;" horiz-adv-x="735" 
d="M454 628v41h241v-41l-85 -13v-622h-35l-400 545v-483l106 -14v-41h-242v41l85 12v555l-9 12l-71 8v41h154l361 -496v442zM446 -108q0 -34 -19 -60t-49.5 -43.5t-65.5 -29.5l-10 29q27 11 47.5 23.5t36.5 33.5q-20 11 -33.5 28t-13.5 36q0 22 15.5 35.5t36.5 13.5
q24 0 46 -19q5 -16 7 -26t2 -21z" />
    <glyph glyph-name="uni0146" unicode="&#x146;" horiz-adv-x="606" 
d="M40 0v36l74 14q1 38 1.5 82t0.5 78v48q0 41 -0.5 68t-2.5 57l-79 9v35l140 61l15 -10l8 -80q37 40 85 65t94 25q65 0 96.5 -43.5t31.5 -141.5v-93q0 -34 0.5 -78t1.5 -82l70 -14v-36h-232v36l74 14q1 37 1.5 81.5t0.5 78.5v85q0 69 -19.5 95t-63.5 26q-34 0 -66 -14
t-70 -46v-146q0 -33 0.5 -77.5t1.5 -82.5l69 -14v-36h-232zM369 -118q0 -34 -19 -60t-49.5 -43.5t-65.5 -29.5l-10 29q27 11 47.5 23.5t36.5 33.5q-20 11 -33.5 28t-13.5 36q0 22 15.5 35.5t36.5 13.5q24 0 46 -19q5 -16 7 -26t2 -21z" />
    <glyph glyph-name="Ncaron" unicode="&#x147;" horiz-adv-x="735" 
d="M454 628v41h241v-41l-85 -13v-622h-35l-400 545v-483l106 -14v-41h-242v41l85 12v555l-9 12l-71 8v41h154l361 -496v442zM258 858l115 -85l115 85l24 -21l-102 -118h-74l-102 118z" />
    <glyph glyph-name="ncaron" unicode="&#x148;" horiz-adv-x="606" 
d="M40 0v36l74 14q1 38 1.5 82t0.5 78v48q0 41 -0.5 68t-2.5 57l-79 9v35l140 61l15 -10l8 -80q37 40 85 65t94 25q65 0 96.5 -43.5t31.5 -141.5v-93q0 -34 0.5 -78t1.5 -82l70 -14v-36h-232v36l74 14q1 37 1.5 81.5t0.5 78.5v85q0 69 -19.5 95t-63.5 26q-34 0 -66 -14
t-70 -46v-146q0 -33 0.5 -77.5t1.5 -82.5l69 -14v-36h-232zM198 739l115 -105l115 105l24 -20l-102 -148h-74l-102 148z" />
    <glyph glyph-name="napostrophe" unicode="&#x149;" horiz-adv-x="772" 
d="M206 0v36l74 14q1 38 1.5 82t0.5 78v48q0 41 -0.5 68t-2.5 57l-79 9v35l140 61l15 -10l8 -80q37 40 85 65t94 25q65 0 96.5 -43.5t31.5 -141.5v-93q0 -34 0.5 -78t1.5 -82l70 -14v-36h-232v36l74 14q1 37 1.5 81.5t0.5 78.5v85q0 69 -19.5 95t-63.5 26q-34 0 -66 -14
t-70 -46v-146q0 -33 0.5 -77.5t1.5 -82.5l69 -14v-36h-232zM175 658q0 -43 -19 -83.5t-50 -74t-69 -57.5l-19 27q36 29 59 54.5t39 65.5l-29 26q-22 20 -30.5 37.5t-8.5 36.5q0 30 16 44.5t43 14.5q15 0 28.5 -4.5t25.5 -15.5q14 -34 14 -71z" />
    <glyph glyph-name="Omacron" unicode="&#x14c;" horiz-adv-x="707" 
d="M354 -15q-58 0 -113 22.5t-99 66.5t-69.5 109.5t-25.5 151.5q0 82 26 147t69.5 110t98.5 68.5t113 23.5t112.5 -22.5t98 -66.5t69.5 -109t26 -151q0 -82 -25.5 -147t-69 -110.5t-98.5 -69t-113 -23.5zM354 35q52 0 89.5 25.5t61 68t34.5 96t11 110.5q0 56 -11 109.5
t-34.5 96.5t-61 68t-89.5 25t-89.5 -25t-61.5 -68t-35.5 -96.5t-11.5 -109.5q0 -57 11.5 -110.5t35.5 -96t61.5 -68t89.5 -25.5zM203 758v63h302v-63h-302z" />
    <glyph glyph-name="omacron" unicode="&#x14d;" horiz-adv-x="549" 
d="M274 -13q-58 0 -110.5 27.5t-85.5 83t-33 137.5q0 83 33 139.5t85.5 85t110.5 28.5t110.5 -28.5t86 -85t33.5 -139.5q0 -82 -33.5 -137.5t-86 -83t-110.5 -27.5zM274 32q65 0 100 51.5t35 151.5q0 101 -35 154t-100 53t-99.5 -53t-34.5 -154q0 -100 34.5 -151.5
t99.5 -51.5zM143 596v63h262v-63h-262z" />
    <glyph glyph-name="uni014E" unicode="&#x14e;" horiz-adv-x="707" 
d="M354 -15q-58 0 -113 22.5t-99 66.5t-69.5 109.5t-25.5 151.5q0 82 26 147t69.5 110t98.5 68.5t113 23.5t112.5 -22.5t98 -66.5t69.5 -109t26 -151q0 -82 -25.5 -147t-69 -110.5t-98.5 -69t-113 -23.5zM354 35q52 0 89.5 25.5t61 68t34.5 96t11 110.5q0 56 -11 109.5
t-34.5 96.5t-61 68t-89.5 25t-89.5 -25t-61.5 -68t-35.5 -96.5t-11.5 -109.5q0 -57 11.5 -110.5t35.5 -96t61.5 -68t89.5 -25.5zM210 868l31 11q11 -34 40 -55.5t73 -21.5q45 0 72.5 21.5t40.5 55.5l31 -11q-4 -30 -21 -59t-47.5 -48.5t-75.5 -19.5t-75.5 19.5t-47 48.5
t-21.5 59z" />
    <glyph glyph-name="uni014F" unicode="&#x14f;" horiz-adv-x="549" 
d="M274 -13q-58 0 -110.5 27.5t-85.5 83t-33 137.5q0 83 33 139.5t85.5 85t110.5 28.5t110.5 -28.5t86 -85t33.5 -139.5q0 -82 -33.5 -137.5t-86 -83t-110.5 -27.5zM274 32q65 0 100 51.5t35 151.5q0 101 -35 154t-100 53t-99.5 -53t-34.5 -154q0 -100 34.5 -151.5
t99.5 -51.5zM123 723l30 11q15 -39 43.5 -66t77.5 -27q50 0 78 27t43 66l30 -11q-4 -38 -22.5 -72t-50.5 -55t-78 -21t-78 21t-50 55t-23 72z" />
    <glyph glyph-name="Ohungarumlaut" unicode="&#x150;" horiz-adv-x="707" 
d="M354 -15q-58 0 -113 22.5t-99 66.5t-69.5 109.5t-25.5 151.5q0 82 26 147t69.5 110t98.5 68.5t113 23.5t112.5 -22.5t98 -66.5t69.5 -109t26 -151q0 -82 -25.5 -147t-69 -110.5t-98.5 -69t-113 -23.5zM354 35q52 0 89.5 25.5t61 68t34.5 96t11 110.5q0 56 -11 109.5
t-34.5 96.5t-61 68t-89.5 25t-89.5 -25t-61.5 -68t-35.5 -96.5t-11.5 -109.5q0 -57 11.5 -110.5t35.5 -96t61.5 -68t89.5 -25.5zM257 729l56 117q11 23 25.5 32.5t26.5 9.5q14 0 25 -9.5t11 -24.5q0 -9 -5 -20t-17 -24l-96 -99zM409 729l56 117q11 23 25.5 32.5t27.5 9.5
q14 0 24.5 -9.5t10.5 -24.5q0 -9 -5 -20t-17 -24l-96 -99z" />
    <glyph glyph-name="ohungarumlaut" unicode="&#x151;" horiz-adv-x="549" 
d="M274 -13q-58 0 -110.5 27.5t-85.5 83t-33 137.5q0 83 33 139.5t85.5 85t110.5 28.5t110.5 -28.5t86 -85t33.5 -139.5q0 -82 -33.5 -137.5t-86 -83t-110.5 -27.5zM274 32q65 0 100 51.5t35 151.5q0 101 -35 154t-100 53t-99.5 -53t-34.5 -154q0 -100 34.5 -151.5
t99.5 -51.5zM182 567l55 142q10 27 25 37t28 10q14 0 24.5 -10t10.5 -27q0 -7 -4 -20t-18 -31l-93 -117zM324 567l55 142q10 27 25 37t28 10q15 0 25.5 -10t10.5 -27q0 -7 -4.5 -20t-18.5 -31l-93 -117z" />
    <glyph glyph-name="OE" unicode="&#x152;" horiz-adv-x="938" 
d="M156 335q0 -58 12.5 -112t40.5 -96.5t72.5 -67t107.5 -24.5q25 0 43.5 2t37.5 8q2 65 2 131.5v133.5v49v132.5t-2 132.5q-19 6 -38 8t-42 2q-64 0 -108.5 -24.5t-72 -67t-40.5 -96t-13 -111.5zM846 178h57l-7 -178h-386q-79 -15 -128 -15q-91 0 -167.5 41t-122 119.5
t-45.5 189.5t45.5 189t122 119t167.5 41q49 0 128 -15h366l7 -177h-57l-22 127h-235q-1 -64 -1.5 -128t-0.5 -126h146l14 95h46v-236h-46l-13 94h-147q0 -75 0.5 -140.5t1.5 -127.5h255z" />
    <glyph glyph-name="oe" unicode="&#x153;" horiz-adv-x="868" 
d="M274 442q-64 0 -99 -52.5t-35 -153.5q0 -100 35 -152t99 -52q65 0 100 50.5t35 150.5q0 101 -35 155t-100 54zM629 442q-28 0 -56 -15.5t-49 -50.5t-27 -94h182q35 0 47.5 14t12.5 38q0 43 -31 75.5t-79 32.5zM820 103q-28 -56 -76.5 -86t-115.5 -30q-60 0 -105 25
t-71 69q-31 -46 -79.5 -70t-98.5 -24q-58 0 -110.5 28t-85.5 83.5t-33 137.5q0 83 33.5 139t86 84.5t109.5 28.5q50 0 100.5 -26t81.5 -73q30 46 78 72.5t100 26.5q53 0 95.5 -23t67.5 -66t25 -104q0 -16 -2 -30.5t-5 -24.5h-320q1 -91 45.5 -139.5t117.5 -48.5
q47 0 82 20.5t57 49.5z" />
    <glyph glyph-name="Racute" unicode="&#x154;" horiz-adv-x="651" 
d="M321 623h-86q-1 -66 -1.5 -131.5t-0.5 -136.5h77q81 0 119.5 39t38.5 99q0 63 -35 96.5t-112 33.5zM44 628v41h280q115 0 179 -46t64 -129q0 -58 -42 -106t-126 -63q44 -9 72.5 -38.5t45.5 -88.5l43 -148l77 -9v-41q-15 -4 -33.5 -7t-41.5 -3q-47 0 -70.5 14t-32.5 50
l-40 160q-9 41 -26 61.5t-43.5 27.5t-67.5 7h-49q0 -72 0.5 -135t1.5 -123l92 -11v-41h-283v41l92 11q2 63 2 128v130v49v129.5t-2 128.5zM283 745q46 49 94 94q21 21 35 29.5t27 8.5q16 0 27 -9.5t11 -24.5q0 -13 -10.5 -26t-39.5 -29q-31 -17 -62.5 -34t-63.5 -34z" />
    <glyph glyph-name="racute" unicode="&#x155;" horiz-adv-x="423" 
d="M42 0v36l72 13q1 38 1.5 82.5t0.5 78.5v48q0 41 -0.5 68t-2.5 57l-79 9v35l140 61l15 -10l11 -118q25 60 64.5 94t79.5 34q23 0 43 -10t29 -27q0 -73 -59 -73q-17 0 -32 6.5t-29 18.5l-12 11q-30 -22 -50 -54t-33 -75v-75q0 -33 0.5 -77t1.5 -82l82 -15v-36h-243z
M213 576q42 71 89 141q14 23 27.5 32t26.5 9q14 0 26 -9t12 -29q0 -10 -6.5 -22.5t-27.5 -32.5q-31 -28 -60.5 -54.5t-60.5 -53.5z" />
    <glyph glyph-name="uni0156" unicode="&#x156;" horiz-adv-x="651" 
d="M321 623h-86q-1 -66 -1.5 -131.5t-0.5 -136.5h77q81 0 119.5 39t38.5 99q0 63 -35 96.5t-112 33.5zM44 628v41h280q115 0 179 -46t64 -129q0 -58 -42 -106t-126 -63q44 -9 72.5 -38.5t45.5 -88.5l43 -148l77 -9v-41q-15 -4 -33.5 -7t-41.5 -3q-47 0 -70.5 14t-32.5 50
l-40 160q-9 41 -26 61.5t-43.5 27.5t-67.5 7h-49q0 -72 0.5 -135t1.5 -123l92 -11v-41h-283v41l92 11q2 63 2 128v130v49v129.5t-2 128.5zM413 -108q0 -34 -19 -60t-49.5 -43.5t-65.5 -29.5l-10 29q27 11 47.5 23.5t36.5 33.5q-20 11 -33.5 28t-13.5 36q0 22 15.5 35.5
t36.5 13.5q24 0 46 -19q5 -16 7 -26t2 -21z" />
    <glyph glyph-name="uni0157" unicode="&#x157;" horiz-adv-x="423" 
d="M42 0v36l72 13q1 38 1.5 82.5t0.5 78.5v48q0 41 -0.5 68t-2.5 57l-79 9v35l140 61l15 -10l11 -118q25 60 64.5 94t79.5 34q23 0 43 -10t29 -27q0 -73 -59 -73q-17 0 -32 6.5t-29 18.5l-12 11q-30 -22 -50 -54t-33 -75v-75q0 -33 0.5 -77t1.5 -82l82 -15v-36h-243z
M214 -118q0 -34 -19 -60t-49.5 -43.5t-65.5 -29.5l-10 29q27 11 47.5 23.5t36.5 33.5q-20 11 -33.5 28t-13.5 36q0 22 15.5 35.5t36.5 13.5q24 0 46 -19q5 -16 7 -26t2 -21z" />
    <glyph glyph-name="Rcaron" unicode="&#x158;" horiz-adv-x="651" 
d="M321 623h-86q-1 -66 -1.5 -131.5t-0.5 -136.5h77q81 0 119.5 39t38.5 99q0 63 -35 96.5t-112 33.5zM44 628v41h280q115 0 179 -46t64 -129q0 -58 -42 -106t-126 -63q44 -9 72.5 -38.5t45.5 -88.5l43 -148l77 -9v-41q-15 -4 -33.5 -7t-41.5 -3q-47 0 -70.5 14t-32.5 50
l-40 160q-9 41 -26 61.5t-43.5 27.5t-67.5 7h-49q0 -72 0.5 -135t1.5 -123l92 -11v-41h-283v41l92 11q2 63 2 128v130v49v129.5t-2 128.5zM206 868l115 -85l115 85l24 -21l-102 -118h-74l-102 118z" />
    <glyph glyph-name="rcaron" unicode="&#x159;" horiz-adv-x="423" 
d="M42 0v36l72 13q1 38 1.5 82.5t0.5 78.5v48q0 41 -0.5 68t-2.5 57l-79 9v35l140 61l15 -10l11 -118q25 60 64.5 94t79.5 34q23 0 43 -10t29 -27q0 -73 -59 -73q-17 0 -32 6.5t-29 18.5l-12 11q-30 -22 -50 -54t-33 -75v-75q0 -33 0.5 -77t1.5 -82l82 -15v-36h-243z
M111 739l115 -105l115 105l24 -20l-102 -148h-74l-102 148z" />
    <glyph glyph-name="Sacute" unicode="&#x15a;" horiz-adv-x="512" 
d="M235 -15q-56 0 -108 15.5t-87 37.5l6 140h62l20 -118q23 -13 47.5 -19t56.5 -6q71 0 113 31.5t42 89.5q0 48 -29.5 74.5t-93.5 51.5l-39 16q-77 30 -124.5 77.5t-47.5 123.5q0 58 29.5 99t80.5 63.5t115 22.5q50 0 91 -14t73 -38l-6 -131h-61l-21 113q-37 20 -82 20
q-57 0 -96 -28.5t-39 -84.5q0 -46 29.5 -76t83.5 -51l40 -15q98 -38 140 -85.5t42 -118.5q0 -59 -30.5 -101.5t-83.5 -65.5t-123 -23zM220 745q46 49 94 94q21 21 35 29.5t27 8.5q16 0 27 -9.5t11 -24.5q0 -13 -10.5 -26t-39.5 -29q-31 -17 -62.5 -34t-63.5 -34z" />
    <glyph glyph-name="sacute" unicode="&#x15b;" horiz-adv-x="434" 
d="M200 -13q-42 0 -77 9.5t-72 28.5l-4 110h55l19 -87q35 -16 81 -16q57 0 84.5 21t27.5 55q0 32 -23 51.5t-70 35.5l-46 17q-55 20 -88 52t-33 83q0 37 20 69t59 52t95 20q41 0 74.5 -10.5t65.5 -30.5l-4 -102h-52l-16 80q-34 17 -69 17q-46 0 -69.5 -18.5t-23.5 -49.5
q0 -33 20.5 -50t71.5 -36l31 -11q75 -28 106.5 -64t31.5 -83q0 -38 -22 -70.5t-65 -52.5t-108 -20zM188 576q42 71 89 141q14 23 27.5 32t26.5 9q14 0 26 -9t12 -29q0 -10 -6.5 -22.5t-27.5 -32.5q-31 -28 -60.5 -54.5t-60.5 -53.5z" />
    <glyph glyph-name="Scircumflex" unicode="&#x15c;" horiz-adv-x="512" 
d="M235 -15q-56 0 -108 15.5t-87 37.5l6 140h62l20 -118q23 -13 47.5 -19t56.5 -6q71 0 113 31.5t42 89.5q0 48 -29.5 74.5t-93.5 51.5l-39 16q-77 30 -124.5 77.5t-47.5 123.5q0 58 29.5 99t80.5 63.5t115 22.5q50 0 91 -14t73 -38l-6 -131h-61l-21 113q-37 20 -82 20
q-57 0 -96 -28.5t-39 -84.5q0 -46 29.5 -76t83.5 -51l40 -15q98 -38 140 -85.5t42 -118.5q0 -59 -30.5 -101.5t-83.5 -65.5t-123 -23zM285 856l131 -115l-19 -25l-129 74l-129 -74l-19 25l131 115h34z" />
    <glyph glyph-name="scircumflex" unicode="&#x15d;" horiz-adv-x="434" 
d="M200 -13q-42 0 -77 9.5t-72 28.5l-4 110h55l19 -87q35 -16 81 -16q57 0 84.5 21t27.5 55q0 32 -23 51.5t-70 35.5l-46 17q-55 20 -88 52t-33 83q0 37 20 69t59 52t95 20q41 0 74.5 -10.5t65.5 -30.5l-4 -102h-52l-16 80q-34 17 -69 17q-46 0 -69.5 -18.5t-23.5 -49.5
q0 -33 20.5 -50t71.5 -36l31 -11q75 -28 106.5 -64t31.5 -83q0 -38 -22 -70.5t-65 -52.5t-108 -20zM354 546l-126 114l-126 -114l-23 22l132 176h34l132 -176z" />
    <glyph glyph-name="uni015E" unicode="&#x15e;" horiz-adv-x="512" 
d="M235 -15q-56 0 -108 15.5t-87 37.5l6 140h62l20 -118q23 -13 47.5 -19t56.5 -6q71 0 113 31.5t42 89.5q0 48 -29.5 74.5t-93.5 51.5l-39 16q-77 30 -124.5 77.5t-47.5 123.5q0 58 29.5 99t80.5 63.5t115 22.5q50 0 91 -14t73 -38l-6 -131h-61l-21 113q-37 20 -82 20
q-57 0 -96 -28.5t-39 -84.5q0 -46 29.5 -76t83.5 -51l40 -15q98 -38 140 -85.5t42 -118.5q0 -59 -30.5 -101.5t-83.5 -65.5t-123 -23zM223 -86l13 89h37l-8 -61q38 -6 65 -26t27 -56q0 -34 -28.5 -57t-83.5 -23q-22 0 -37.5 3t-25.5 6l7 31q24 -3 48 -3q58 0 58 45
q0 23 -17.5 35t-54.5 17z" />
    <glyph glyph-name="uni015F" unicode="&#x15f;" horiz-adv-x="434" 
d="M200 -13q-42 0 -77 9.5t-72 28.5l-4 110h55l19 -87q35 -16 81 -16q57 0 84.5 21t27.5 55q0 32 -23 51.5t-70 35.5l-46 17q-55 20 -88 52t-33 83q0 37 20 69t59 52t95 20q41 0 74.5 -10.5t65.5 -30.5l-4 -102h-52l-16 80q-34 17 -69 17q-46 0 -69.5 -18.5t-23.5 -49.5
q0 -33 20.5 -50t71.5 -36l31 -11q75 -28 106.5 -64t31.5 -83q0 -38 -22 -70.5t-65 -52.5t-108 -20zM183 -86l13 89h37l-8 -61q38 -6 65 -26t27 -56q0 -34 -28.5 -57t-83.5 -23q-22 0 -37.5 3t-25.5 6l7 31q24 -3 48 -3q58 0 58 45q0 23 -17.5 35t-54.5 17z" />
    <glyph glyph-name="Scaron" unicode="&#x160;" horiz-adv-x="512" 
d="M235 -15q-56 0 -108 15.5t-87 37.5l6 140h62l20 -118q23 -13 47.5 -19t56.5 -6q71 0 113 31.5t42 89.5q0 48 -29.5 74.5t-93.5 51.5l-39 16q-77 30 -124.5 77.5t-47.5 123.5q0 58 29.5 99t80.5 63.5t115 22.5q50 0 91 -14t73 -38l-6 -131h-61l-21 113q-37 20 -82 20
q-57 0 -96 -28.5t-39 -84.5q0 -46 29.5 -76t83.5 -51l40 -15q98 -38 140 -85.5t42 -118.5q0 -59 -30.5 -101.5t-83.5 -65.5t-123 -23zM156 868l115 -85l115 85l24 -21l-102 -118h-74l-102 118z" />
    <glyph glyph-name="scaron" unicode="&#x161;" horiz-adv-x="434" 
d="M200 -13q-42 0 -77 9.5t-72 28.5l-4 110h55l19 -87q35 -16 81 -16q57 0 84.5 21t27.5 55q0 32 -23 51.5t-70 35.5l-46 17q-55 20 -88 52t-33 83q0 37 20 69t59 52t95 20q41 0 74.5 -10.5t65.5 -30.5l-4 -102h-52l-16 80q-34 17 -69 17q-46 0 -69.5 -18.5t-23.5 -49.5
q0 -33 20.5 -50t71.5 -36l31 -11q75 -28 106.5 -64t31.5 -83q0 -38 -22 -70.5t-65 -52.5t-108 -20zM112 739l115 -105l115 105l24 -20l-102 -148h-74l-102 148z" />
    <glyph glyph-name="uni0162" unicode="&#x162;" horiz-adv-x="604" 
d="M20 491l8 178h548l8 -178h-58l-22 128h-153q-1 -64 -1.5 -129t-0.5 -131v-49q0 -64 0.5 -128.5t1.5 -129.5l102 -11v-41h-302v41l102 11q2 64 2 128.5v129.5v49v130t-2 130h-153l-22 -128h-58zM268 -86l13 89h37l-8 -61q38 -6 65 -26t27 -56q0 -34 -28.5 -57t-83.5 -23
q-22 0 -37.5 3t-25.5 6l7 31q24 -3 48 -3q58 0 58 45q0 23 -17.5 35t-54.5 17z" />
    <glyph glyph-name="uni0163" unicode="&#x163;" horiz-adv-x="325" 
d="M205 -13q-52 0 -83 28t-31 86q0 19 0.5 37.5t0.5 47.5v236h-83v44l89 11l26 134h60l-6 -136h135v-53h-136v-310q0 -38 15 -55.5t40 -17.5q17 0 32.5 7t34.5 20l24 -26q-41 -53 -118 -53zM164 -86l13 89h37l-8 -61q38 -6 65 -26t27 -56q0 -34 -28.5 -57t-83.5 -23
q-22 0 -37.5 3t-25.5 6l7 31q24 -3 48 -3q58 0 58 45q0 23 -17.5 35t-54.5 17z" />
    <glyph glyph-name="Tcaron" unicode="&#x164;" horiz-adv-x="604" 
d="M20 491l8 178h548l8 -178h-58l-22 128h-153q-1 -64 -1.5 -129t-0.5 -131v-49q0 -64 0.5 -128.5t1.5 -129.5l102 -11v-41h-302v41l102 11q2 64 2 128.5v129.5v49v130t-2 130h-153l-22 -128h-58zM187 868l115 -85l115 85l24 -21l-102 -118h-74l-102 118z" />
    <glyph glyph-name="tcaron" unicode="&#x165;" horiz-adv-x="325" 
d="M205 -13q-52 0 -83 28t-31 86q0 19 0.5 37.5t0.5 47.5v236h-83v44l89 11l26 134h60l-6 -136h135v-53h-136v-310q0 -38 15 -55.5t40 -17.5q17 0 32.5 7t34.5 20l24 -26q-41 -53 -118 -53zM310 750q20 0 28 -10t8 -27q0 -22 -11 -59t-23 -72l-19 -54h-32l3 209q23 13 46 13
z" />
    <glyph glyph-name="Utilde" unicode="&#x168;" horiz-adv-x="727" 
d="M453 628v41h240v-41l-87 -11v-343q0 -105 -31 -168.5t-85 -92t-123 -28.5q-72 0 -127 28t-85.5 87t-30.5 152v108v129.5t-2 128.5l-83 10v41h283v-41l-102 -12q-1 -63 -1.5 -127t-0.5 -129v-79q0 -85 20.5 -134.5t57.5 -70t88 -20.5q85 0 128 54.5t43 187.5v317zM198 734
q9 59 34 94t71 35q27 0 46 -10.5t38 -26.5q17 -13 34 -29t39 -16q25 0 41 21.5t27 58.5l30 -10q-10 -58 -34 -93t-70 -35q-28 0 -46.5 10t-35.5 23q-19 16 -36 32t-40 16q-24 0 -40.5 -21t-27.5 -58z" />
    <glyph glyph-name="utilde" unicode="&#x169;" horiz-adv-x="583" 
d="M223 -13q-61 0 -96 40.5t-34 139.5l3 249l-71 15v36l147 14l10 -10l-5 -140v-155q0 -65 20 -91.5t60 -26.5q70 0 140 65l3 294l-71 14v36l145 14l10 -10l-3 -140v-281l68 -14v-36l-139 -8l-10 89q-40 -49 -85.5 -71.5t-91.5 -22.5zM129 586q8 59 31 94t64 35q25 0 42 -10
t31 -24q18 -17 33.5 -32.5t35.5 -15.5q23 0 37.5 21.5t24.5 58.5l27 -10q-9 -58 -31 -93t-64 -35q-25 0 -41.5 9.5t-31.5 23.5q-16 17 -32.5 32.5t-36.5 15.5q-22 0 -36.5 -21t-25.5 -58z" />
    <glyph glyph-name="Umacron" unicode="&#x16a;" horiz-adv-x="727" 
d="M453 628v41h240v-41l-87 -11v-343q0 -105 -31 -168.5t-85 -92t-123 -28.5q-72 0 -127 28t-85.5 87t-30.5 152v108v129.5t-2 128.5l-83 10v41h283v-41l-102 -12q-1 -63 -1.5 -127t-0.5 -129v-79q0 -85 20.5 -134.5t57.5 -70t88 -20.5q85 0 128 54.5t43 187.5v317zM231 758
v63h302v-63h-302z" />
    <glyph glyph-name="umacron" unicode="&#x16b;" horiz-adv-x="583" 
d="M223 -13q-61 0 -96 40.5t-34 139.5l3 249l-71 15v36l147 14l10 -10l-5 -140v-155q0 -65 20 -91.5t60 -26.5q70 0 140 65l3 294l-71 14v36l145 14l10 -10l-3 -140v-281l68 -14v-36l-139 -8l-10 89q-40 -49 -85.5 -71.5t-91.5 -22.5zM158 596v63h262v-63h-262z" />
    <glyph glyph-name="Ubreve" unicode="&#x16c;" horiz-adv-x="727" 
d="M453 628v41h240v-41l-87 -11v-343q0 -105 -31 -168.5t-85 -92t-123 -28.5q-72 0 -127 28t-85.5 87t-30.5 152v108v129.5t-2 128.5l-83 10v41h283v-41l-102 -12q-1 -63 -1.5 -127t-0.5 -129v-79q0 -85 20.5 -134.5t57.5 -70t88 -20.5q85 0 128 54.5t43 187.5v317zM241 858
l31 11q11 -34 40 -55.5t73 -21.5q45 0 72.5 21.5t40.5 55.5l31 -11q-4 -30 -21 -59t-47.5 -48.5t-75.5 -19.5t-75.5 19.5t-47 48.5t-21.5 59z" />
    <glyph glyph-name="ubreve" unicode="&#x16d;" horiz-adv-x="583" 
d="M223 -13q-61 0 -96 40.5t-34 139.5l3 249l-71 15v36l147 14l10 -10l-5 -140v-155q0 -65 20 -91.5t60 -26.5q70 0 140 65l3 294l-71 14v36l145 14l10 -10l-3 -140v-281l68 -14v-36l-139 -8l-10 89q-40 -49 -85.5 -71.5t-91.5 -22.5zM141 723l30 11q15 -39 43.5 -66
t77.5 -27q50 0 78 27t43 66l30 -11q-4 -38 -22.5 -72t-50.5 -55t-78 -21t-78 21t-50 55t-23 72z" />
    <glyph glyph-name="Uring" unicode="&#x16e;" horiz-adv-x="727" 
d="M453 628v41h240v-41l-87 -11v-343q0 -105 -31 -168.5t-85 -92t-123 -28.5q-72 0 -127 28t-85.5 87t-30.5 152v108v129.5t-2 128.5l-83 10v41h283v-41l-102 -12q-1 -63 -1.5 -127t-0.5 -129v-79q0 -85 20.5 -134.5t57.5 -70t88 -20.5q85 0 128 54.5t43 187.5v317zM385 722
q-37 0 -66.5 24t-29.5 68t29.5 68.5t66.5 24.5t66.5 -24t29.5 -69q0 -43 -29.5 -67.5t-66.5 -24.5zM385 757q25 0 38.5 18t13.5 39q0 22 -13 39t-39 17q-25 0 -38.5 -17t-13.5 -39q0 -21 13.5 -39t38.5 -18z" />
    <glyph glyph-name="uring" unicode="&#x16f;" horiz-adv-x="583" 
d="M223 -13q-61 0 -96 40.5t-34 139.5l3 249l-71 15v36l147 14l10 -10l-5 -140v-155q0 -65 20 -91.5t60 -26.5q70 0 140 65l3 294l-71 14v36l145 14l10 -10l-3 -140v-281l68 -14v-36l-139 -8l-10 89q-40 -49 -85.5 -71.5t-91.5 -22.5zM287 590q27 0 42 19.5t15 42.5
t-14.5 42t-42.5 19q-27 0 -42 -19t-15 -42t14.5 -42.5t42.5 -19.5zM287 550q-40 0 -72.5 26.5t-32.5 75.5q0 47 32.5 74t72.5 27q41 0 73 -26t32 -75q0 -48 -32 -75t-73 -27z" />
    <glyph glyph-name="Uhungarumlaut" unicode="&#x170;" horiz-adv-x="727" 
d="M453 628v41h240v-41l-87 -11v-343q0 -105 -31 -168.5t-85 -92t-123 -28.5q-72 0 -127 28t-85.5 87t-30.5 152v108v129.5t-2 128.5l-83 10v41h283v-41l-102 -12q-1 -63 -1.5 -127t-0.5 -129v-79q0 -85 20.5 -134.5t57.5 -70t88 -20.5q85 0 128 54.5t43 187.5v317zM283 729
l56 117q11 23 25.5 32.5t26.5 9.5q14 0 25 -9.5t11 -24.5q0 -9 -5 -20t-17 -24l-96 -99zM435 729l56 117q11 23 25.5 32.5t27.5 9.5q14 0 24.5 -9.5t10.5 -24.5q0 -9 -5 -20t-17 -24l-96 -99z" />
    <glyph glyph-name="uhungarumlaut" unicode="&#x171;" horiz-adv-x="583" 
d="M223 -13q-61 0 -96 40.5t-34 139.5l3 249l-71 15v36l147 14l10 -10l-5 -140v-155q0 -65 20 -91.5t60 -26.5q70 0 140 65l3 294l-71 14v36l145 14l10 -10l-3 -140v-281l68 -14v-36l-139 -8l-10 89q-40 -49 -85.5 -71.5t-91.5 -22.5zM190 567l55 142q10 27 25 37t28 10
q14 0 24.5 -10t10.5 -27q0 -7 -4 -20t-18 -31l-93 -117zM332 567l55 142q10 27 25 37t28 10q15 0 25.5 -10t10.5 -27q0 -7 -4.5 -20t-18.5 -31l-93 -117z" />
    <glyph glyph-name="Uogonek" unicode="&#x172;" horiz-adv-x="727" 
d="M453 628v41h240v-41l-87 -12v-342q0 -106 -30.5 -165t-79.5 -91q-75 -51 -75 -114q0 -32 19.5 -50t48.5 -18q11 0 24.5 3t27.5 12l12 -23q-18 -25 -44 -36.5t-55 -11.5q-44 0 -70 23.5t-26 64.5q0 35 18.5 66.5t46.5 54.5q-12 -1 -24 -2.5t-25 -1.5q-114 0 -182 63.5
t-68 203.5v108v129.5t-2 128.5l-83 10v41h283v-41l-102 -12q-1 -63 -1.5 -127t-0.5 -129v-79q0 -85 20 -134.5t56.5 -70t85.5 -20.5q88 0 131.5 54.5t43.5 187.5v318z" />
    <glyph glyph-name="uogonek" unicode="&#x173;" horiz-adv-x="583" 
d="M223 -13q-61 0 -96 40.5t-34 139.5l3 249l-71 15v36l147 14l10 -10l-5 -140v-155q0 -65 20 -91.5t60 -26.5q70 0 140 65l3 294l-71 14v36l145 14l10 -10l-3 -140v-281l68 -14v-36l-39 -2q-28 -20 -45.5 -44t-17.5 -50q0 -32 19.5 -50t49.5 -18q10 0 23.5 3t28.5 12
l12 -23q-19 -25 -45.5 -36.5t-59.5 -11.5q-40 0 -65.5 23.5t-25.5 64.5q0 40 27 73.5t64 54.5l-65 -4l-10 89q-40 -49 -85.5 -71.5t-91.5 -22.5z" />
    <glyph glyph-name="Wcircumflex" unicode="&#x174;" horiz-adv-x="962" 
d="M726 628v41h227v-41l-84 -12l-169 -623h-43l-173 518l-163 -518h-43l-180 625l-83 10v41h272v-41l-92 -11l123 -459l152 458l-100 12v41h272v-41l-101 -12l149 -463l127 462zM522 856l131 -115l-19 -25l-129 74l-129 -74l-19 25l131 115h34z" />
    <glyph glyph-name="wcircumflex" unicode="&#x175;" horiz-adv-x="764" 
d="M571 436v39h183v-39l-54 -13l-146 -429h-37l-130 355l-132 -355h-37l-161 432l-57 10v39h228v-39l-78 -12l103 -307l112 307l-74 12v39h221v-39l-74 -13l114 -305l93 304zM529 546l-126 114l-126 -114l-23 22l132 176h34l132 -176z" />
    <glyph glyph-name="Ycircumflex" unicode="&#x176;" horiz-adv-x="633" 
d="M15 628v41h282v-41l-95 -11l139 -303l143 302l-90 12v41h229v-41l-88 -13l-170 -352q0 -58 0.5 -110.5t1.5 -100.5l102 -11v-41h-302v41l102 11q2 47 2 98v109l-177 360zM358 856l131 -115l-19 -25l-129 74l-129 -74l-19 25l131 115h34z" />
    <glyph glyph-name="ycircumflex" unicode="&#x177;" horiz-adv-x="512" 
d="M317 439v36h195v-36l-54 -11l-161 -425q-50 -133 -96.5 -192.5t-108.5 -59.5q-37 0 -64.5 18.5t-27.5 47.5q5 22 24.5 33t42.5 11q20 0 37 -8.5t37 -29.5l5 -5q32 27 54 65.5t36 78.5l4 12l-181 457l-55 8v36h240v-37l-88 -10l125 -341l123 340zM410 546l-126 114
l-126 -114l-23 22l132 176h34l132 -176z" />
    <glyph glyph-name="Ydieresis" unicode="&#x178;" horiz-adv-x="633" 
d="M15 628v41h282v-41l-95 -11l139 -303l143 302l-90 12v41h229v-41l-88 -13l-170 -352q0 -58 0.5 -110.5t1.5 -100.5l102 -11v-41h-302v41l102 11q2 47 2 98v109l-177 360zM235 744q-23 0 -40.5 15.5t-17.5 39.5t17.5 39.5t40.5 15.5q24 0 40.5 -15.5t16.5 -39.5
t-16.5 -39.5t-40.5 -15.5zM458 744q-24 0 -40.5 15.5t-16.5 39.5t16.5 39.5t40.5 15.5q23 0 40.5 -15.5t17.5 -39.5t-17.5 -39.5t-40.5 -15.5z" />
    <glyph glyph-name="Zacute" unicode="&#x179;" horiz-adv-x="551" 
d="M20 0v36l378 583h-280l-27 -128h-61l8 178h471v-35l-377 -584h311l27 128h61l-8 -178h-503zM240 745q46 49 94 94q21 21 35 29.5t27 8.5q16 0 27 -9.5t11 -24.5q0 -13 -10.5 -26t-39.5 -29q-31 -17 -62.5 -34t-63.5 -34z" />
    <glyph glyph-name="zacute" unicode="&#x17a;" horiz-adv-x="456" 
d="M29 0v35l287 397h-202l-27 -111l-52 4l8 150h373v-36l-286 -397h219l30 121h52l-10 -163h-392zM200 576q42 71 89 141q14 23 27.5 32t26.5 9q14 0 26 -9t12 -29q0 -10 -6.5 -22.5t-27.5 -32.5q-31 -28 -60.5 -54.5t-60.5 -53.5z" />
    <glyph glyph-name="Zdotaccent" unicode="&#x17b;" horiz-adv-x="551" 
d="M20 0v36l378 583h-280l-27 -128h-61l8 178h471v-35l-377 -584h311l27 128h61l-8 -178h-503zM286 736q-28 0 -47.5 18t-19.5 46q0 29 19.5 46.5t47.5 17.5q29 0 48 -17.5t19 -46.5q0 -28 -19 -46t-48 -18z" />
    <glyph glyph-name="zdotaccent" unicode="&#x17c;" horiz-adv-x="456" 
d="M29 0v35l287 397h-202l-27 -111l-52 4l8 150h373v-36l-286 -397h219l30 121h52l-10 -163h-392zM236 589q-28 0 -47.5 18t-19.5 46t19.5 46t47.5 18q29 0 48 -18t19 -46t-19 -46t-48 -18z" />
    <glyph glyph-name="Zcaron" unicode="&#x17d;" horiz-adv-x="551" 
d="M20 0v36l378 583h-280l-27 -128h-61l8 178h471v-35l-377 -584h311l27 128h61l-8 -178h-503zM162 868l115 -85l115 85l24 -21l-102 -118h-74l-102 118z" />
    <glyph glyph-name="zcaron" unicode="&#x17e;" horiz-adv-x="456" 
d="M29 0v35l287 397h-202l-27 -111l-52 4l8 150h373v-36l-286 -397h219l30 121h52l-10 -163h-392zM124 739l115 -105l115 105l24 -20l-102 -148h-74l-102 148z" />
    <glyph glyph-name="longs" unicode="&#x17f;" horiz-adv-x="344" 
d="M107 210v212q0 108 19 170.5t62 104.5q27 28 62 40t69 12q36 0 62.5 -13t33.5 -41q-1 -19 -17 -32t-43 -13q-19 0 -35.5 7t-36.5 23l-29 23q-3 -2 -6 -5l-6 -6q-21 -21 -32 -50.5t-15 -78.5t-4 -131v-222q0 -40 0.5 -79.5t1.5 -79.5l90 -15v-36h-258v36l80 14
q1 41 1.5 80.5t0.5 79.5z" />
    <glyph glyph-name="uni018F" unicode="&#x18f;" horiz-adv-x="657" 
d="M47 278q0 23 2 48.5t5 39.5h451q-5 90 -35.5 147t-76.5 84t-98 27q-56 0 -103 -21.5t-82 -59.5l-28 30q38 50 96 80.5t137 30.5q81 0 148 -40t107 -117t40 -187q0 -109 -38 -188.5t-102.5 -123t-142.5 -43.5q-84 0 -147 34.5t-98 100t-35 158.5zM328 35q83 0 130 68
t48 216h-352q-3 -19 -4.5 -36t-1.5 -43q0 -53 22.5 -100t63 -76t94.5 -29z" />
    <glyph glyph-name="uni0192" unicode="&#x192;" horiz-adv-x="500" 
d="M103 345v50h117q8 78 25.5 128.5t52.5 85.5q25 25 57.5 37.5t64.5 12.5q41 0 68.5 -15.5t34.5 -38.5q-3 -20 -17.5 -32.5t-39.5 -12.5q-17 0 -34 7t-35 26l-22 23q-26 -17 -39 -40q-18 -30 -24 -71.5t-11 -109.5h125v-50h-129l-10 -112q-10 -111 -26.5 -176t-56.5 -105
q-28 -28 -59.5 -40t-63.5 -12q-41 0 -69 15.5t-36 38.5q4 20 18 32.5t39 12.5q19 0 36 -7t34 -26l23 -23q25 15 39 40q14 24 20.5 55t10 74.5t8.5 104.5l11 128h-112z" />
    <glyph glyph-name="Ohorn" unicode="&#x1a0;" horiz-adv-x="707" 
d="M354 -15q-58 0 -113 22.5t-99 66.5t-69.5 109.5t-25.5 151.5q0 82 26 147t69.5 110t98.5 68.5t113 23.5t112.5 -22.5t98 -66.5t69.5 -109t26 -151q0 -82 -25.5 -147t-69 -110.5t-98.5 -69t-113 -23.5zM354 35q52 0 89.5 25.5t61 68t34.5 96t11 110.5q0 56 -11 109.5
t-34.5 96.5t-61 68t-89.5 25t-89.5 -25t-61.5 -68t-35.5 -96.5t-11.5 -109.5q0 -57 11.5 -110.5t35.5 -96t61.5 -68t89.5 -25.5zM510 575l-4 27q46 8 68 27t22 54q0 23 -12.5 40t-12.5 38q0 12 10.5 24t28.5 12q8 0 17 -2t19 -10q14 -30 14 -55q0 -67 -43 -108t-107 -47z
" />
    <glyph glyph-name="ohorn" unicode="&#x1a1;" horiz-adv-x="549" 
d="M274 -13q-58 0 -110.5 27.5t-85.5 83t-33 137.5q0 83 33 139.5t85.5 85t110.5 28.5t110.5 -28.5t86 -85t33.5 -139.5q0 -82 -33.5 -137.5t-86 -83t-110.5 -27.5zM274 32q65 0 100 51.5t35 151.5q0 101 -35 154t-100 53t-99.5 -53t-34.5 -154q0 -100 34.5 -151.5
t99.5 -51.5zM399 378l-4 27q46 8 68 27t22 54q0 23 -12.5 40t-12.5 38q0 12 10.5 24t28.5 12q8 0 17 -2t19 -10q14 -30 14 -55q0 -67 -43 -108t-107 -47z" />
    <glyph glyph-name="Uhorn" unicode="&#x1af;" horiz-adv-x="727" 
d="M218 281q0 -85 20.5 -134.5t57.5 -70t88 -20.5q85 0 128 54.5t43 187.5v317l-102 13v41h138q48 0 68.5 7.5t20.5 23.5q0 17 -12.5 33.5t-12.5 37.5q0 12 10.5 24.5t28.5 12.5q8 0 17 -2.5t19 -10.5q7 -14 10.5 -27.5t3.5 -27.5q0 -58 -37.5 -86t-100.5 -36v-344
q0 -105 -31 -168.5t-85 -92t-123 -28.5q-72 0 -127 28t-85.5 87t-30.5 152v108v129.5t-2 128.5l-83 10v41h283v-41l-102 -12q-1 -63 -1.5 -127t-0.5 -129v-79z" />
    <glyph glyph-name="uhorn" unicode="&#x1b0;" horiz-adv-x="583" 
d="M223 -13q-61 0 -96 40.5t-34 139.5l3 249l-71 15v36l147 14l10 -10l-5 -140v-155q0 -65 20 -91.5t60 -26.5q70 0 140 65l3 294l-71 14v36l145 14l10 -10l-3 -140v-281l68 -14v-36l-139 -8l-10 89q-40 -49 -85.5 -71.5t-91.5 -22.5zM476 378l-4 27q46 8 68 27t22 54
q0 23 -12.5 40t-12.5 38q0 12 10.5 24t28.5 12q8 0 17 -2t19 -10q14 -30 14 -55q0 -67 -43 -108t-107 -47z" />
    <glyph glyph-name="uni01CD" unicode="&#x1cd;" horiz-adv-x="664" 
d="M309 562l-101 -298h201zM5 0v41l84 13l213 620h63l213 -624l75 -9v-41h-272v41l98 12l-55 164h-232l-56 -163l98 -13v-41h-229zM215 868l115 -85l115 85l24 -21l-102 -118h-74l-102 118z" />
    <glyph glyph-name="uni01CE" unicode="&#x1ce;" horiz-adv-x="509" 
d="M416 -10q-36 0 -60 21t-30 56q-41 -40 -72 -60t-75 -20q-55 0 -94.5 31.5t-39.5 93.5q0 29 13.5 54t49.5 49t103 48q23 8 53 17t60 16v25q0 73 -22 97t-72 24q-11 0 -24.5 -1t-29.5 -5l-19 -65q-14 -48 -52 -48q-42 0 -47 41q14 57 66.5 90.5t128.5 33.5q79 0 117 -39.5
t38 -134.5v-213q0 -32 10 -45.5t26 -13.5q13 0 22 6t17 16l20 -22q-18 -29 -39.5 -40.5t-47.5 -11.5zM134 127q0 -40 23 -57t57 -17q15 0 28.5 4t32.5 15.5t49 33.5v153q-26 -7 -51 -15.5t-41 -14.5q-43 -17 -64 -35t-27.5 -35t-6.5 -32zM134 739l115 -105l115 105l24 -20
l-102 -148h-74l-102 148z" />
    <glyph glyph-name="uni01CF" unicode="&#x1cf;" horiz-adv-x="371" 
d="M44 628v41h283v-41l-92 -11q-1 -63 -1.5 -128t-0.5 -130v-49q0 -64 0.5 -128.5t1.5 -129.5l92 -11v-41h-283v41l92 11q2 63 2 128v130v49v129.5t-2 128.5zM70 868l115 -85l115 85l24 -21l-102 -118h-74l-102 118z" />
    <glyph glyph-name="uni01D0" unicode="&#x1d0;" horiz-adv-x="298" 
d="M35 0v36l74 14q1 38 1.5 82t0.5 78v47q0 41 -0.5 68.5t-2.5 57.5l-79 9v35l155 61l15 -10l-3 -136v-132q0 -33 0.5 -77.5t1.5 -82.5l69 -14v-36h-232zM34 739l115 -105l115 105l24 -20l-102 -148h-74l-102 148z" />
    <glyph glyph-name="uni01D1" unicode="&#x1d1;" horiz-adv-x="707" 
d="M354 -15q-58 0 -113 22.5t-99 66.5t-69.5 109.5t-25.5 151.5q0 82 26 147t69.5 110t98.5 68.5t113 23.5t112.5 -22.5t98 -66.5t69.5 -109t26 -151q0 -82 -25.5 -147t-69 -110.5t-98.5 -69t-113 -23.5zM354 35q52 0 89.5 25.5t61 68t34.5 96t11 110.5q0 56 -11 109.5
t-34.5 96.5t-61 68t-89.5 25t-89.5 -25t-61.5 -68t-35.5 -96.5t-11.5 -109.5q0 -57 11.5 -110.5t35.5 -96t61.5 -68t89.5 -25.5zM239 868l115 -85l115 85l24 -21l-102 -118h-74l-102 118z" />
    <glyph glyph-name="uni01D2" unicode="&#x1d2;" horiz-adv-x="549" 
d="M274 -13q-58 0 -110.5 27.5t-85.5 83t-33 137.5q0 83 33 139.5t85.5 85t110.5 28.5t110.5 -28.5t86 -85t33.5 -139.5q0 -82 -33.5 -137.5t-86 -83t-110.5 -27.5zM274 32q65 0 100 51.5t35 151.5q0 101 -35 154t-100 53t-99.5 -53t-34.5 -154q0 -100 34.5 -151.5
t99.5 -51.5zM159 739l115 -105l115 105l24 -20l-102 -148h-74l-102 148z" />
    <glyph glyph-name="uni01D3" unicode="&#x1d3;" horiz-adv-x="727" 
d="M453 628v41h240v-41l-87 -11v-343q0 -105 -31 -168.5t-85 -92t-123 -28.5q-72 0 -127 28t-85.5 87t-30.5 152v108v129.5t-2 128.5l-83 10v41h283v-41l-102 -12q-1 -63 -1.5 -127t-0.5 -129v-79q0 -85 20.5 -134.5t57.5 -70t88 -20.5q85 0 128 54.5t43 187.5v317zM276 868
l115 -85l115 85l24 -21l-102 -118h-74l-102 118z" />
    <glyph glyph-name="uni01D4" unicode="&#x1d4;" horiz-adv-x="583" 
d="M223 -13q-61 0 -96 40.5t-34 139.5l3 249l-71 15v36l147 14l10 -10l-5 -140v-155q0 -65 20 -91.5t60 -26.5q70 0 140 65l3 294l-71 14v36l145 14l10 -10l-3 -140v-281l68 -14v-36l-139 -8l-10 89q-40 -49 -85.5 -71.5t-91.5 -22.5zM177 739l115 -105l115 105l24 -20
l-102 -148h-74l-102 148z" />
    <glyph glyph-name="uni01D5" unicode="&#x1d5;" horiz-adv-x="727" 
d="M453 628v41h240v-41l-87 -11v-343q0 -105 -31 -168.5t-85 -92t-123 -28.5q-72 0 -127 28t-85.5 87t-30.5 152v108v129.5t-2 128.5l-83 10v41h283v-41l-102 -12q-1 -63 -1.5 -127t-0.5 -129v-79q0 -85 20.5 -134.5t57.5 -70t88 -20.5q85 0 128 54.5t43 187.5v317zM285 744
q-23 0 -40.5 15.5t-17.5 39.5t17.5 39.5t40.5 15.5q24 0 40.5 -15.5t16.5 -39.5t-16.5 -39.5t-40.5 -15.5zM508 744q-24 0 -40.5 15.5t-16.5 39.5t16.5 39.5t40.5 15.5q23 0 40.5 -15.5t17.5 -39.5t-17.5 -39.5t-40.5 -15.5zM246 912v63h302v-63h-302z" />
    <glyph glyph-name="uni01D6" unicode="&#x1d6;" horiz-adv-x="583" 
d="M223 -13q-61 0 -96 40.5t-34 139.5l3 249l-71 15v36l147 14l10 -10l-5 -140v-155q0 -65 20 -91.5t60 -26.5q70 0 140 65l3 294l-71 14v36l145 14l10 -10l-3 -140v-281l68 -14v-36l-139 -8l-10 89q-40 -49 -85.5 -71.5t-91.5 -22.5zM187 576q-24 0 -41.5 16t-17.5 41
q0 24 17.5 40.5t41.5 16.5q25 0 42.5 -16.5t17.5 -40.5q0 -25 -17.5 -41t-42.5 -16zM397 576q-25 0 -42.5 16t-17.5 41q0 24 17.5 40.5t42.5 16.5q24 0 41.5 -16.5t17.5 -40.5q0 -25 -17.5 -41t-41.5 -16zM161 737v63h262v-63h-262z" />
    <glyph glyph-name="uni01D7" unicode="&#x1d7;" horiz-adv-x="727" 
d="M453 628v41h240v-41l-87 -11v-343q0 -105 -31 -168.5t-85 -92t-123 -28.5q-72 0 -127 28t-85.5 87t-30.5 152v108v129.5t-2 128.5l-83 10v41h283v-41l-102 -12q-1 -63 -1.5 -127t-0.5 -129v-79q0 -85 20.5 -134.5t57.5 -70t88 -20.5q85 0 128 54.5t43 187.5v317zM227 799
q0 24 17.5 39.5t40.5 15.5q24 0 40.5 -15.5t16.5 -39.5t-16.5 -39.5t-40.5 -15.5q-23 0 -40.5 15.5t-17.5 39.5zM385 848l-23 24l67 89q26 34 52 34q15 0 26 -9.5t11 -26.5q0 -28 -37 -52zM451 799q0 24 16.5 39.5t40.5 15.5q23 0 40.5 -15.5t17.5 -39.5t-17.5 -39.5
t-40.5 -15.5q-24 0 -40.5 15.5t-16.5 39.5z" />
    <glyph glyph-name="uni01D8" unicode="&#x1d8;" horiz-adv-x="583" 
d="M223 -13q-61 0 -96 40.5t-34 139.5l3 249l-71 15v36l147 14l10 -10l-5 -140v-155q0 -65 20 -91.5t60 -26.5q70 0 140 65l3 294l-71 14v36l145 14l10 -10l-3 -140v-281l68 -14v-36l-139 -8l-10 89q-40 -49 -85.5 -71.5t-91.5 -22.5zM134 621q0 24 17 39.5t40 15.5
q24 0 41 -15.5t17 -39.5t-17 -39.5t-41 -15.5q-23 0 -40 15.5t-17 39.5zM266 690l49 97q23 46 54 46q14 0 25 -9.5t11 -27.5q0 -14 -7.5 -26t-22.5 -26l-83 -73zM335 621q0 24 17 39.5t41 15.5q23 0 40 -15.5t17 -39.5t-17 -39.5t-40 -15.5q-24 0 -41 15.5t-17 39.5z" />
    <glyph glyph-name="uni01D9" unicode="&#x1d9;" horiz-adv-x="727" 
d="M453 628v41h240v-41l-87 -11v-343q0 -105 -31 -168.5t-85 -92t-123 -28.5q-72 0 -127 28t-85.5 87t-30.5 152v108v129.5t-2 128.5l-83 10v41h283v-41l-102 -12q-1 -63 -1.5 -127t-0.5 -129v-79q0 -85 20.5 -134.5t57.5 -70t88 -20.5q85 0 128 54.5t43 187.5v317zM285 744
q-23 0 -40.5 15.5t-17.5 39.5t17.5 39.5t40.5 15.5q24 0 40.5 -15.5t16.5 -39.5t-16.5 -39.5t-40.5 -15.5zM508 744q-24 0 -40.5 15.5t-16.5 39.5t16.5 39.5t40.5 15.5q23 0 40.5 -15.5t17.5 -39.5t-17.5 -39.5t-40.5 -15.5zM282 1002l115 -85l115 85l24 -21l-102 -118h-74
l-102 118z" />
    <glyph glyph-name="uni01DA" unicode="&#x1da;" horiz-adv-x="583" 
d="M223 -13q-61 0 -96 40.5t-34 139.5l3 249l-71 15v36l147 14l10 -10l-5 -140v-155q0 -65 20 -91.5t60 -26.5q70 0 140 65l3 294l-71 14v36l145 14l10 -10l-3 -140v-281l68 -14v-36l-139 -8l-10 89q-40 -49 -85.5 -71.5t-91.5 -22.5zM187 576q-24 0 -41.5 16t-17.5 41
q0 24 17.5 40.5t41.5 16.5q25 0 42.5 -16.5t17.5 -40.5q0 -25 -17.5 -41t-42.5 -16zM397 576q-25 0 -42.5 16t-17.5 41q0 24 17.5 40.5t42.5 16.5q24 0 41.5 -16.5t17.5 -40.5q0 -25 -17.5 -41t-41.5 -16zM177 840l115 -85l115 85l24 -21l-102 -118h-74l-102 118z" />
    <glyph glyph-name="uni01DB" unicode="&#x1db;" horiz-adv-x="727" 
d="M453 628v41h240v-41l-87 -11v-343q0 -105 -31 -168.5t-85 -92t-123 -28.5q-72 0 -127 28t-85.5 87t-30.5 152v108v129.5t-2 128.5l-83 10v41h283v-41l-102 -12q-1 -63 -1.5 -127t-0.5 -129v-79q0 -85 20.5 -134.5t57.5 -70t88 -20.5q85 0 128 54.5t43 187.5v317zM227 799
q0 24 17.5 39.5t40.5 15.5q24 0 40.5 -15.5t16.5 -39.5t-16.5 -39.5t-40.5 -15.5q-23 0 -40.5 15.5t-17.5 39.5zM315 907q-37 24 -37 50q0 17 11 27.5t27 10.5q27 0 52 -34l67 -89l-22 -23zM451 799q0 24 16.5 39.5t40.5 15.5q23 0 40.5 -15.5t17.5 -39.5t-17.5 -39.5
t-40.5 -15.5q-24 0 -40.5 15.5t-16.5 39.5z" />
    <glyph glyph-name="uni01DC" unicode="&#x1dc;" horiz-adv-x="583" 
d="M223 -13q-61 0 -96 40.5t-34 139.5l3 249l-71 15v36l147 14l10 -10l-5 -140v-155q0 -65 20 -91.5t60 -26.5q70 0 140 65l3 294l-71 14v36l145 14l10 -10l-3 -140v-281l68 -14v-36l-139 -8l-10 89q-40 -49 -85.5 -71.5t-91.5 -22.5zM134 621q0 24 17 39.5t40 15.5
q24 0 41 -15.5t17 -39.5t-17 -39.5t-41 -15.5q-23 0 -40 15.5t-17 39.5zM294 671l-83 73q-15 14 -22.5 26t-7.5 26q0 18 11.5 27.5t24.5 9.5q31 0 54 -46l47 -95zM335 621q0 24 17 39.5t41 15.5q23 0 40 -15.5t17 -39.5t-17 -39.5t-40 -15.5q-24 0 -41 15.5t-17 39.5z" />
    <glyph glyph-name="Gcaron" unicode="&#x1e6;" horiz-adv-x="682" 
d="M384 -15q-100 0 -176 45.5t-118.5 124.5t-42.5 180t43 179.5t119.5 124t178.5 45.5q62 0 110.5 -11.5t90.5 -35.5l4 -146h-62l-20 114q-52 29 -114 29q-69 0 -123.5 -35t-86 -101.5t-31.5 -162.5q0 -143 66 -221t181 -78q57 0 107 20v32q0 45 -0.5 90.5t-1.5 90.5l-104 9
v40h263v-40l-61 -6q-1 -45 -1.5 -91t-0.5 -93v-44q-52 -27 -105 -43t-115 -16zM272 868l115 -85l115 85l24 -21l-102 -118h-74l-102 118z" />
    <glyph glyph-name="gcaron" unicode="&#x1e7;" horiz-adv-x="518" 
d="M237 200q48 0 75 36t27 91q0 53 -25.5 86.5t-72.5 33.5t-74 -34.5t-27 -89.5t25.5 -89t71.5 -34zM239 160q-39 0 -74 11q-25 -32 -25 -64q0 -20 11.5 -32t46.5 -12h131q83 0 122 -34t39 -95q0 -43 -27.5 -83t-82.5 -65t-137 -25q-109 0 -158 34t-49 87q0 32 21.5 59.5
t76.5 54.5q-66 18 -66 76q0 24 15.5 50t52.5 61q-36 20 -56.5 55t-20.5 86q0 79 51.5 121.5t129.5 42.5q79 0 127 -39l113 39l15 -10v-63h-98q23 -37 23 -91q0 -79 -51.5 -121.5t-129.5 -42.5zM118 -102q0 -49 35 -70t94 -21q82 0 125 29.5t43 71.5q0 33 -23 55.5t-77 22.5
h-117q-10 0 -20.5 0.5t-20.5 1.5q-21 -22 -30 -43.5t-9 -46.5zM127 739l115 -105l115 105l24 -20l-102 -148h-74l-102 148z" />
    <glyph glyph-name="uni01F8" unicode="&#x1f8;" horiz-adv-x="735" 
d="M454 628v41h241v-41l-85 -13v-622h-35l-400 545v-483l106 -14v-41h-242v41l85 12v555l-9 12l-71 8v41h154l361 -496v442zM404 745l-18 -25q-32 17 -63.5 34t-62.5 33q-28 16 -39 29.5t-11 26.5q0 15 11 24.5t27 9.5q13 0 27 -8.5t35 -29.5q49 -46 94 -94z" />
    <glyph glyph-name="uni01F9" unicode="&#x1f9;" horiz-adv-x="606" 
d="M40 0v36l74 14q1 38 1.5 82t0.5 78v48q0 41 -0.5 68t-2.5 57l-79 9v35l140 61l15 -10l8 -80q37 40 85 65t94 25q65 0 96.5 -43.5t31.5 -141.5v-93q0 -34 0.5 -78t1.5 -82l70 -14v-36h-232v36l74 14q1 37 1.5 81.5t0.5 78.5v85q0 69 -19.5 95t-63.5 26q-34 0 -66 -14
t-70 -46v-146q0 -33 0.5 -77.5t1.5 -82.5l69 -14v-36h-232zM347 576l-26 -19q-31 27 -60.5 53.5t-60.5 54.5q-21 20 -27.5 32.5t-6.5 22.5q0 20 11.5 29t26.5 9q14 0 27 -9t27 -32q24 -36 45.5 -71t43.5 -70z" />
    <glyph glyph-name="uni0218" unicode="&#x218;" horiz-adv-x="512" 
d="M235 -15q-56 0 -108 15.5t-87 37.5l6 140h62l20 -118q23 -13 47.5 -19t56.5 -6q71 0 113 31.5t42 89.5q0 48 -29.5 74.5t-93.5 51.5l-39 16q-77 30 -124.5 77.5t-47.5 123.5q0 58 29.5 99t80.5 63.5t115 22.5q50 0 91 -14t73 -38l-6 -131h-61l-21 113q-37 20 -82 20
q-57 0 -96 -28.5t-39 -84.5q0 -46 29.5 -76t83.5 -51l40 -15q98 -38 140 -85.5t42 -118.5q0 -59 -30.5 -101.5t-83.5 -65.5t-123 -23zM317 -118q0 -34 -19 -60t-49.5 -43.5t-65.5 -29.5l-10 29q27 11 47.5 23.5t36.5 33.5q-20 11 -33.5 28t-13.5 36q0 22 15.5 35.5
t36.5 13.5q24 0 46 -19q5 -16 7 -26t2 -21z" />
    <glyph glyph-name="uni0219" unicode="&#x219;" horiz-adv-x="434" 
d="M200 -13q-42 0 -77 9.5t-72 28.5l-4 110h55l19 -87q35 -16 81 -16q57 0 84.5 21t27.5 55q0 32 -23 51.5t-70 35.5l-46 17q-55 20 -88 52t-33 83q0 37 20 69t59 52t95 20q41 0 74.5 -10.5t65.5 -30.5l-4 -102h-52l-16 80q-34 17 -69 17q-46 0 -69.5 -18.5t-23.5 -49.5
q0 -33 20.5 -50t71.5 -36l31 -11q75 -28 106.5 -64t31.5 -83q0 -38 -22 -70.5t-65 -52.5t-108 -20zM272 -118q0 -34 -19 -60t-49.5 -43.5t-65.5 -29.5l-10 29q27 11 47.5 23.5t36.5 33.5q-20 11 -33.5 28t-13.5 36q0 22 15.5 35.5t36.5 13.5q24 0 46 -19q5 -16 7 -26t2 -21z
" />
    <glyph glyph-name="uni021A" unicode="&#x21a;" horiz-adv-x="604" 
d="M20 491l8 178h548l8 -178h-58l-22 128h-153q-1 -64 -1.5 -129t-0.5 -131v-49q0 -64 0.5 -128.5t1.5 -129.5l102 -11v-41h-302v41l102 11q2 64 2 128.5v129.5v49v130t-2 130h-153l-22 -128h-58zM358 -118q0 -34 -19 -60t-49.5 -43.5t-65.5 -29.5l-10 29q27 11 47.5 23.5
t36.5 33.5q-20 11 -33.5 28t-13.5 36q0 22 15.5 35.5t36.5 13.5q24 0 46 -19q5 -16 7 -26t2 -21z" />
    <glyph glyph-name="uni021B" unicode="&#x21b;" horiz-adv-x="325" 
d="M205 -13q-52 0 -83 28t-31 86q0 19 0.5 37.5t0.5 47.5v236h-83v44l89 11l26 134h60l-6 -136h135v-53h-136v-310q0 -38 15 -55.5t40 -17.5q17 0 32.5 7t34.5 20l24 -26q-41 -53 -118 -53zM263 -118q0 -34 -19 -60t-49.5 -43.5t-65.5 -29.5l-10 29q27 11 47.5 23.5
t36.5 33.5q-20 11 -33.5 28t-13.5 36q0 22 15.5 35.5t36.5 13.5q24 0 46 -19q5 -16 7 -26t2 -21z" />
    <glyph glyph-name="uni0237" unicode="&#x237;" horiz-adv-x="277" 
d="M6 -249q-45 0 -66.5 19t-22.5 38q13 41 59 41q20 0 38 -7.5t37 -22.5l23 -17q11 11 16 27q12 32 16.5 96.5t4.5 176.5v155q0 41 -0.5 68.5t-2.5 57.5l-79 9v35l151 61l15 -10l-3 -136v-242q0 -81 -4 -137t-17.5 -93.5t-40.5 -64.5q-26 -26 -53 -40t-71 -14z" />
    <glyph glyph-name="uni0259" unicode="&#x259;" horiz-adv-x="519" 
d="M250 -13q-91 0 -147 56t-56 163q0 17 2 31.5t5 24.5h327q-9 76 -51 118.5t-107 42.5q-41 0 -77 -19.5t-62 -50.5l-24 19q27 50 74.5 83t115.5 33q103 0 162.5 -64.5t59.5 -180.5q0 -77 -31 -134.5t-81.5 -89.5t-109.5 -32zM248 32q32 0 63 18.5t51.5 60t20.5 109.5h-194
q-37 0 -48 -13t-11 -39q0 -36 15.5 -67t42.5 -50t60 -19z" />
    <glyph glyph-name="quoteleft" unicode="&#x2018;" horiz-adv-x="212" 
d="M37 534q0 44 19 84t50.5 73.5t68.5 57.5l19 -27q-36 -29 -58.5 -54.5t-39.5 -65.5l29 -26q23 -19 31 -37t8 -37q0 -30 -16 -44.5t-43 -14.5q-15 0 -28.5 4.5t-25.5 15.5q-14 34 -14 71z" />
    <glyph glyph-name="quoteleft" unicode="&#x2bb;" horiz-adv-x="212" 
d="M37 534q0 44 19 84t50.5 73.5t68.5 57.5l19 -27q-36 -29 -58.5 -54.5t-39.5 -65.5l29 -26q23 -19 31 -37t8 -37q0 -30 -16 -44.5t-43 -14.5q-15 0 -28.5 4.5t-25.5 15.5q-14 34 -14 71z" />
    <glyph glyph-name="quoteright" unicode="&#x2019;" horiz-adv-x="212" 
d="M175 658q0 -43 -19 -83.5t-50 -74t-69 -57.5l-19 27q36 29 59 54.5t39 65.5l-29 26q-22 20 -30.5 37.5t-8.5 36.5q0 30 16 44.5t43 14.5q15 0 28.5 -4.5t25.5 -15.5q14 -34 14 -71z" />
    <glyph glyph-name="quoteright" unicode="&#x2bc;" horiz-adv-x="212" 
d="M175 658q0 -43 -19 -83.5t-50 -74t-69 -57.5l-19 27q36 29 59 54.5t39 65.5l-29 26q-22 20 -30.5 37.5t-8.5 36.5q0 30 16 44.5t43 14.5q15 0 28.5 -4.5t25.5 -15.5q14 -34 14 -71z" />
    <glyph glyph-name="circumflex" unicode="&#x2c6;" horiz-adv-x="318" 
d="M285 546l-126 114l-126 -114l-23 22l132 176h34l132 -176z" />
    <glyph glyph-name="ring" unicode="&#x2da;" horiz-adv-x="400" 
d="M200 590q27 0 42 19.5t15 42.5t-14.5 42t-42.5 19q-27 0 -42 -19t-15 -42t14.5 -42.5t42.5 -19.5zM200 550q-40 0 -72.5 26.5t-32.5 75.5q0 47 32.5 74t72.5 27q41 0 73 -26t32 -75q0 -48 -32 -75t-73 -27z" />
    <glyph glyph-name="tilde" unicode="&#x2dc;" horiz-adv-x="400" 
d="M39 586q8 59 31 94t64 35q25 0 42 -10t31 -24q18 -17 33.5 -32.5t35.5 -15.5q23 0 37.5 21.5t24.5 58.5l27 -10q-9 -58 -31 -93t-64 -35q-25 0 -41.5 9.5t-31.5 23.5q-16 17 -32.5 32.5t-36.5 15.5q-22 0 -36.5 -21t-25.5 -58z" />
    <glyph glyph-name="uni0300" 
d="M55 576l-26 -19q-31 27 -60.5 53.5t-60.5 54.5q-21 20 -27.5 32.5t-6.5 22.5q0 20 11.5 29t26.5 9q14 0 27 -9t27 -32q24 -36 45.5 -71t43.5 -70z" />
    <glyph glyph-name="uni0301" 
d="M-59 576q42 71 89 141q14 23 27.5 32t26.5 9q14 0 26 -9t12 -29q0 -10 -6.5 -22.5t-27.5 -32.5q-31 -28 -60.5 -54.5t-60.5 -53.5z" />
    <glyph glyph-name="uni0302" 
d="M126 546l-126 114l-126 -114l-23 22l132 176h34l132 -176z" />
    <glyph glyph-name="uni0303" 
d="M-163 586q8 59 31 94t64 35q25 0 42 -10t31 -24q18 -17 33.5 -32.5t35.5 -15.5q23 0 37.5 21.5t24.5 58.5l27 -10q-9 -58 -31 -93t-64 -35q-25 0 -41.5 9.5t-31.5 23.5q-16 17 -32.5 32.5t-36.5 15.5q-22 0 -36.5 -21t-25.5 -58z" />
    <glyph glyph-name="uni0304" 
d="M-131 596v63h262v-63h-262z" />
    <glyph glyph-name="uni0306" 
d="M-151 723l30 11q15 -39 43.5 -66t77.5 -27q50 0 78 27t43 66l30 -11q-4 -38 -22.5 -72t-50.5 -55t-78 -21t-78 21t-50 55t-23 72z" />
    <glyph glyph-name="uni0307" 
d="M0 589q-28 0 -47.5 18t-19.5 46t19.5 46t47.5 18q29 0 48 -18t19 -46t-19 -46t-48 -18z" />
    <glyph glyph-name="uni0308" 
d="M-105 596q-24 0 -41.5 16t-17.5 41q0 24 17.5 40.5t41.5 16.5q25 0 42.5 -16.5t17.5 -40.5q0 -25 -17.5 -41t-42.5 -16zM105 596q-25 0 -42.5 16t-17.5 41q0 24 17.5 40.5t42.5 16.5q24 0 41.5 -16.5t17.5 -40.5q0 -25 -17.5 -41t-41.5 -16z" />
    <glyph glyph-name="uni0309" 
d="M-19 553l-9 31q29 6 41 18.5t12 29.5q0 21 -19 31t-64 17l10 67q122 -11 122 -100q0 -38 -24.5 -63.5t-68.5 -30.5z" />
    <glyph glyph-name="uni030A" 
d="M0 590q27 0 42 19.5t15 42.5t-14.5 42t-42.5 19q-27 0 -42 -19t-15 -42t14.5 -42.5t42.5 -19.5zM0 550q-40 0 -72.5 26.5t-32.5 75.5q0 47 32.5 74t72.5 27q41 0 73 -26t32 -75q0 -48 -32 -75t-73 -27z" />
    <glyph glyph-name="uni030B" 
d="M-112 567l55 142q10 27 25 37t28 10q14 0 24.5 -10t10.5 -27q0 -7 -4 -20t-18 -31l-93 -117zM30 567l55 142q10 27 25 37t28 10q15 0 25.5 -10t10.5 -27q0 -7 -4.5 -20t-18.5 -31l-93 -117z" />
    <glyph glyph-name="uni030C" 
d="M-115 739l115 -105l115 105l24 -20l-102 -148h-74l-102 148z" />
    <glyph glyph-name="uni031B" 
d="M-6 378l-4 27q46 8 68 27t22 54q0 23 -12.5 40t-12.5 38q0 12 10.5 24t28.5 12q8 0 17 -2t19 -10q14 -30 14 -55q0 -67 -43 -108t-107 -47z" />
    <glyph glyph-name="uni0323" 
d="M0 -203q-28 0 -47.5 18t-19.5 46t19.5 46t47.5 18q29 0 48 -18t19 -46t-19 -46t-48 -18z" />
    <glyph glyph-name="uni0326" 
d="M62 -118q0 -34 -19 -60t-49.5 -43.5t-65.5 -29.5l-10 29q27 11 47.5 23.5t36.5 33.5q-20 11 -33.5 28t-13.5 36q0 22 15.5 35.5t36.5 13.5q24 0 46 -19q5 -16 7 -26t2 -21z" />
    <glyph glyph-name="uni0327" 
d="M-26 -86l13 89h37l-8 -61q38 -6 65 -26t27 -56q0 -34 -28.5 -57t-83.5 -23q-22 0 -37.5 3t-25.5 6l7 31q24 -3 48 -3q58 0 58 45q0 23 -17.5 35t-54.5 17z" />
    <glyph glyph-name="uni0328" 
d="M-97 -132q0 46 30.5 85.5t70.5 59.5h29q-31 -20 -48.5 -49.5t-17.5 -59.5q0 -32 19.5 -50t47.5 -18q10 0 24 3t29 12l13 -25q-18 -25 -47 -35.5t-56 -10.5q-41 0 -67.5 23.5t-26.5 64.5z" />
    <glyph glyph-name="uni032E" 
d="M-151 -79l30 11q15 -39 43.5 -66t77.5 -27q50 0 78 27t43 66l30 -11q-4 -38 -22.5 -72t-50.5 -55t-78 -21t-78 21t-50 55t-23 72z" />
    <glyph glyph-name="uni0331" 
d="M-131 -176v63h262v-63h-262z" />
    <glyph glyph-name="a.sups" horiz-adv-x="351" 
d="M284 488q0 -31 20 -31q13 0 26 15l15 -13q-11 -23 -26.5 -32t-35.5 -9q-28 0 -44 14t-21 38q-26 -26 -47 -40t-53 -14q-38 0 -64 21.5t-26 61.5q0 31 23 56.5t93 46.5q17 5 35.5 10t36.5 10v18q0 46 -13.5 62t-48.5 16q-13 0 -31 -3l-10 -38q-12 -44 -41 -44
q-30 0 -35 30q8 38 44.5 62t93.5 24q56 0 82.5 -27t26.5 -91v-143zM98 512q0 -26 16 -37.5t35 -11.5q15 0 28 7.5t39 25.5v100q-15 -4 -29 -8t-27 -9q-37 -13 -49.5 -30.5t-12.5 -36.5z" />
    <glyph glyph-name="o.sups" horiz-adv-x="377" 
d="M189 714q-91 0 -91 -132q0 -68 23.5 -100t67.5 -32q43 0 66.5 32t23.5 100q0 67 -23.5 99.5t-66.5 32.5zM189 749q41 0 77.5 -20t59.5 -57t23 -90t-22.5 -90.5t-59 -57t-78.5 -19.5t-78.5 20t-59.5 57.5t-23 89.5q0 53 23 90t60 57t78 20z" />
    <glyph glyph-name="uni1E0C" unicode="&#x1e0c;" horiz-adv-x="710" 
d="M233 322q0 -73 0.5 -141t1.5 -134h79q116 0 178 75.5t62 211.5q0 141 -61 215t-170 74h-88q-1 -64 -1.5 -130.5t-0.5 -133.5v-37zM44 628v41h295q96 0 169 -38.5t114 -113t41 -183.5q0 -108 -45 -182.5t-122.5 -113t-175.5 -38.5h-276v41l92 11q2 64 2 130.5v139.5v37
v129.5t-2 128.5zM334 -203q-28 0 -47.5 18t-19.5 46t19.5 46t47.5 18q29 0 48 -18t19 -46t-19 -46t-48 -18z" />
    <glyph glyph-name="uni1E0D" unicode="&#x1e0d;" horiz-adv-x="567" 
d="M135 235q0 -98 39.5 -144.5t99.5 -46.5q33 0 58.5 13.5t53.5 44.5v277q-34 30 -61 41t-52 11q-37 0 -68.5 -20.5t-50.5 -64t-19 -111.5zM396 -10l-7 69q-26 -34 -59.5 -53t-80.5 -19q-61 0 -107 31t-71.5 86.5t-25.5 128.5q0 77 28 134t76 89t109 32q35 0 67.5 -14
t63.5 -51v226l-85 10v35l156 45l14 -8l-4 -142v-541l81 -12v-36zM308 -203q-28 0 -47.5 18t-19.5 46t19.5 46t47.5 18q29 0 48 -18t19 -46t-19 -46t-48 -18z" />
    <glyph glyph-name="uni1E0E" unicode="&#x1e0e;" horiz-adv-x="710" 
d="M233 322q0 -73 0.5 -141t1.5 -134h79q116 0 178 75.5t62 211.5q0 141 -61 215t-170 74h-88q-1 -64 -1.5 -130.5t-0.5 -133.5v-37zM44 628v41h295q96 0 169 -38.5t114 -113t41 -183.5q0 -108 -45 -182.5t-122.5 -113t-175.5 -38.5h-276v41l92 11q2 64 2 130.5v139.5v37
v129.5t-2 128.5zM222 -176v63h262v-63h-262z" />
    <glyph glyph-name="uni1E0F" unicode="&#x1e0f;" horiz-adv-x="567" 
d="M135 235q0 -98 39.5 -144.5t99.5 -46.5q33 0 58.5 13.5t53.5 44.5v277q-34 30 -61 41t-52 11q-37 0 -68.5 -20.5t-50.5 -64t-19 -111.5zM396 -10l-7 69q-26 -34 -59.5 -53t-80.5 -19q-61 0 -107 31t-71.5 86.5t-25.5 128.5q0 77 28 134t76 89t109 32q35 0 67.5 -14
t63.5 -51v226l-85 10v35l156 45l14 -8l-4 -142v-541l81 -12v-36zM176 -176v63h262v-63h-262z" />
    <glyph glyph-name="uni1E20" unicode="&#x1e20;" horiz-adv-x="682" 
d="M384 -15q-100 0 -176 45.5t-118.5 124.5t-42.5 180t43 179.5t119.5 124t178.5 45.5q62 0 110.5 -11.5t90.5 -35.5l4 -146h-62l-20 114q-52 29 -114 29q-69 0 -123.5 -35t-86 -101.5t-31.5 -162.5q0 -143 66 -221t181 -78q57 0 107 20v32q0 45 -0.5 90.5t-1.5 90.5l-104 9
v40h263v-40l-61 -6q-1 -45 -1.5 -91t-0.5 -93v-44q-52 -27 -105 -43t-115 -16zM235 758v63h302v-63h-302z" />
    <glyph glyph-name="uni1E21" unicode="&#x1e21;" horiz-adv-x="518" 
d="M237 200q48 0 75 36t27 91q0 53 -25.5 86.5t-72.5 33.5t-74 -34.5t-27 -89.5t25.5 -89t71.5 -34zM239 160q-39 0 -74 11q-25 -32 -25 -64q0 -20 11.5 -32t46.5 -12h131q83 0 122 -34t39 -95q0 -43 -27.5 -83t-82.5 -65t-137 -25q-109 0 -158 34t-49 87q0 32 21.5 59.5
t76.5 54.5q-66 18 -66 76q0 24 15.5 50t52.5 61q-36 20 -56.5 55t-20.5 86q0 79 51.5 121.5t129.5 42.5q79 0 127 -39l113 39l15 -10v-63h-98q23 -37 23 -91q0 -79 -51.5 -121.5t-129.5 -42.5zM118 -102q0 -49 35 -70t94 -21q82 0 125 29.5t43 71.5q0 33 -23 55.5t-77 22.5
h-117q-10 0 -20.5 0.5t-20.5 1.5q-21 -22 -30 -43.5t-9 -46.5zM114 596v63h262v-63h-262z" />
    <glyph glyph-name="uni1E24" unicode="&#x1e24;" horiz-adv-x="789" 
d="M462 628v41h282v-41l-92 -11q-1 -63 -1.5 -128t-0.5 -130v-49q0 -64 0.5 -128.5t1.5 -129.5l92 -11v-41h-282v41l92 11q2 64 2 130.5v136.5h-323q0 -76 0.5 -141t1.5 -127l91 -10v-41h-282v41l92 11q2 63 2 128v130v49v129.5t-2 128.5l-92 11v41h282v-41l-91 -10
q-1 -64 -1.5 -128t-0.5 -124h323v128t-2 123zM393 -203q-28 0 -47.5 18t-19.5 46t19.5 46t47.5 18q29 0 48 -18t19 -46t-19 -46t-48 -18z" />
    <glyph glyph-name="uni1E25" unicode="&#x1e25;" horiz-adv-x="601" 
d="M30 0v36l75 14q1 38 1.5 82.5t0.5 77.5v439l-82 10v35l153 45l14 -8l-4 -142v-193q37 41 86 66.5t97 25.5q65 0 96.5 -43.5t31.5 -141.5v-93q0 -34 0.5 -78t1.5 -82l70 -14v-36h-232v36l73 13q1 38 1.5 82.5t0.5 78.5v85q0 69 -19 95t-63 26q-37 0 -70 -15t-71 -50v-141
q0 -33 0.5 -77.5t1.5 -82.5l69 -14v-36h-232zM299 -203q-28 0 -47.5 18t-19.5 46t19.5 46t47.5 18q29 0 48 -18t19 -46t-19 -46t-48 -18z" />
    <glyph glyph-name="uni1E2A" unicode="&#x1e2a;" horiz-adv-x="789" 
d="M462 628v41h282v-41l-92 -11q-1 -63 -1.5 -128t-0.5 -130v-49q0 -64 0.5 -128.5t1.5 -129.5l92 -11v-41h-282v41l92 11q2 64 2 130.5v136.5h-323q0 -76 0.5 -141t1.5 -127l91 -10v-41h-282v41l92 11q2 63 2 128v130v49v129.5t-2 128.5l-92 11v41h282v-41l-91 -10
q-1 -64 -1.5 -128t-0.5 -124h323v128t-2 123zM242 -79l30 11q15 -39 43.5 -66t77.5 -27q50 0 78 27t43 66l30 -11q-4 -38 -22.5 -72t-50.5 -55t-78 -21t-78 21t-50 55t-23 72z" />
    <glyph glyph-name="uni1E2B" unicode="&#x1e2b;" horiz-adv-x="601" 
d="M30 0v36l75 14q1 38 1.5 82.5t0.5 77.5v439l-82 10v35l153 45l14 -8l-4 -142v-193q37 41 86 66.5t97 25.5q65 0 96.5 -43.5t31.5 -141.5v-93q0 -34 0.5 -78t1.5 -82l70 -14v-36h-232v36l73 13q1 38 1.5 82.5t0.5 78.5v85q0 69 -19 95t-63 26q-37 0 -70 -15t-71 -50v-141
q0 -33 0.5 -77.5t1.5 -82.5l69 -14v-36h-232zM152 -79l30 11q15 -39 43.5 -66t77.5 -27q50 0 78 27t43 66l30 -11q-4 -38 -22.5 -72t-50.5 -55t-78 -21t-78 21t-50 55t-23 72z" />
    <glyph glyph-name="uni1E36" unicode="&#x1e36;" horiz-adv-x="596" 
d="M44 628v41h283v-41l-92 -11q-1 -64 -1.5 -128.5t-0.5 -129.5v-69q0 -53 0.5 -114.5t1.5 -125.5h227l29 138h61l-10 -188h-498v41l92 11q2 65 2 129v128v50v130t-2 128zM342 -203q-28 0 -47.5 18t-19.5 46t19.5 46t47.5 18q29 0 48 -18t19 -46t-19 -46t-48 -18z" />
    <glyph glyph-name="uni1E37" unicode="&#x1e37;" horiz-adv-x="298" 
d="M25 0v36l80 14q1 41 1.5 80.5t0.5 79.5v439l-82 10v35l156 45l14 -8l-4 -142v-379q0 -40 0.5 -80t1.5 -80l80 -14v-36h-248zM148 -203q-28 0 -47.5 18t-19.5 46t19.5 46t47.5 18q29 0 48 -18t19 -46t-19 -46t-48 -18z" />
    <glyph glyph-name="uni1E38" unicode="&#x1e38;" horiz-adv-x="596" 
d="M44 628v41h283v-41l-92 -11q-1 -64 -1.5 -128.5t-0.5 -129.5v-69q0 -53 0.5 -114.5t1.5 -125.5h227l29 138h61l-10 -188h-498v41l92 11q2 65 2 129v128v50v130t-2 128zM342 -203q-28 0 -47.5 18t-19.5 46t19.5 46t47.5 18q29 0 48 -18t19 -46t-19 -46t-48 -18zM37 758v63
h302v-63h-302z" />
    <glyph glyph-name="uni1E39" unicode="&#x1e39;" horiz-adv-x="298" 
d="M25 0v36l80 14q1 41 1.5 80.5t0.5 79.5v439l-82 10v35l156 45l14 -8l-4 -142v-379q0 -40 0.5 -80t1.5 -80l80 -14v-36h-248zM148 -203q-28 0 -47.5 18t-19.5 46t19.5 46t47.5 18q29 0 48 -18t19 -46t-19 -46t-48 -18zM5 816v63h262v-63h-262z" />
    <glyph glyph-name="uni1E3A" unicode="&#x1e3a;" horiz-adv-x="596" 
d="M44 628v41h283v-41l-92 -11q-1 -64 -1.5 -128.5t-0.5 -129.5v-69q0 -53 0.5 -114.5t1.5 -125.5h227l29 138h61l-10 -188h-498v41l92 11q2 65 2 129v128v50v130t-2 128zM198 -176v63h262v-63h-262z" />
    <glyph glyph-name="uni1E3B" unicode="&#x1e3b;" horiz-adv-x="298" 
d="M25 0v36l80 14q1 41 1.5 80.5t0.5 79.5v439l-82 10v35l156 45l14 -8l-4 -142v-379q0 -40 0.5 -80t1.5 -80l80 -14v-36h-248zM18 -176v63h262v-63h-262z" />
    <glyph glyph-name="uni1E3E" unicode="&#x1e3e;" horiz-adv-x="902" 
d="M39 0v41l90 13v563l-90 11v41h185l224 -550l212 550h197v-41l-92 -11q-1 -63 -1.5 -128t-0.5 -130v-49q0 -64 0.5 -128.5t1.5 -129.5l92 -11v-41h-272v41l84 11q2 63 2 128v129v249l-217 -558h-50l-229 558l6 -189v-315l82 -13v-41h-224zM404 735q46 49 94 94
q21 21 35 29.5t27 8.5q16 0 27 -9.5t11 -24.5q0 -13 -10.5 -26t-39.5 -29q-31 -17 -62.5 -34t-63.5 -34z" />
    <glyph glyph-name="uni1E3F" unicode="&#x1e3f;" horiz-adv-x="901" 
d="M40 0v36l74 14q1 38 1.5 82t0.5 78v48q0 41 -0.5 68t-2.5 57l-79 9v35l140 61l15 -10l8 -81q35 40 82 65.5t93 25.5q47 0 76.5 -22t42.5 -72q38 47 85 70.5t96 23.5q61 0 94.5 -41t33.5 -134v-103q0 -34 0.5 -78t1.5 -82l70 -14v-36h-232v36l74 14q1 37 1.5 81.5
t0.5 78.5v87q0 70 -20 94.5t-64 24.5q-31 0 -63.5 -14t-70.5 -49q1 -11 1.5 -23.5t0.5 -26.5v-93q0 -34 0.5 -78t1.5 -82l70 -14v-36h-232v36l74 14q1 37 1.5 81.5t0.5 78.5v85q0 68 -19 94.5t-63 26.5q-34 0 -65 -14t-68 -46v-146q0 -33 0.5 -77.5t1.5 -82.5l69 -14v-36
h-232zM411 576q42 71 89 141q14 23 27.5 32t26.5 9q14 0 26 -9t12 -29q0 -10 -6.5 -22.5t-27.5 -32.5q-31 -28 -60.5 -54.5t-60.5 -53.5z" />
    <glyph glyph-name="uni1E42" unicode="&#x1e42;" horiz-adv-x="902" 
d="M39 0v41l90 13v563l-90 11v41h185l224 -550l212 550h197v-41l-92 -11q-1 -63 -1.5 -128t-0.5 -130v-49q0 -64 0.5 -128.5t1.5 -129.5l92 -11v-41h-272v41l84 11q2 63 2 128v129v249l-217 -558h-50l-229 558l6 -189v-315l82 -13v-41h-224zM427 -203q-28 0 -47.5 18
t-19.5 46t19.5 46t47.5 18q29 0 48 -18t19 -46t-19 -46t-48 -18z" />
    <glyph glyph-name="uni1E43" unicode="&#x1e43;" horiz-adv-x="901" 
d="M40 0v36l74 14q1 38 1.5 82t0.5 78v48q0 41 -0.5 68t-2.5 57l-79 9v35l140 61l15 -10l8 -81q35 40 82 65.5t93 25.5q47 0 76.5 -22t42.5 -72q38 47 85 70.5t96 23.5q61 0 94.5 -41t33.5 -134v-103q0 -34 0.5 -78t1.5 -82l70 -14v-36h-232v36l74 14q1 37 1.5 81.5
t0.5 78.5v87q0 70 -20 94.5t-64 24.5q-31 0 -63.5 -14t-70.5 -49q1 -11 1.5 -23.5t0.5 -26.5v-93q0 -34 0.5 -78t1.5 -82l70 -14v-36h-232v36l74 14q1 37 1.5 81.5t0.5 78.5v85q0 68 -19 94.5t-63 26.5q-34 0 -65 -14t-68 -46v-146q0 -33 0.5 -77.5t1.5 -82.5l69 -14v-36
h-232zM462 -203q-28 0 -47.5 18t-19.5 46t19.5 46t47.5 18q29 0 48 -18t19 -46t-19 -46t-48 -18z" />
    <glyph glyph-name="uni1E44" unicode="&#x1e44;" horiz-adv-x="735" 
d="M454 628v41h241v-41l-85 -13v-622h-35l-400 545v-483l106 -14v-41h-242v41l85 12v555l-9 12l-71 8v41h154l361 -496v442zM367 717q-28 0 -47.5 18t-19.5 46q0 29 19.5 46.5t47.5 17.5q29 0 48 -17.5t19 -46.5q0 -28 -19 -46t-48 -18z" />
    <glyph glyph-name="uni1E45" unicode="&#x1e45;" horiz-adv-x="606" 
d="M40 0v36l74 14q1 38 1.5 82t0.5 78v48q0 41 -0.5 68t-2.5 57l-79 9v35l140 61l15 -10l8 -80q37 40 85 65t94 25q65 0 96.5 -43.5t31.5 -141.5v-93q0 -34 0.5 -78t1.5 -82l70 -14v-36h-232v36l74 14q1 37 1.5 81.5t0.5 78.5v85q0 69 -19.5 95t-63.5 26q-34 0 -66 -14
t-70 -46v-146q0 -33 0.5 -77.5t1.5 -82.5l69 -14v-36h-232zM312 589q-28 0 -47.5 18t-19.5 46t19.5 46t47.5 18q29 0 48 -18t19 -46t-19 -46t-48 -18z" />
    <glyph glyph-name="uni1E46" unicode="&#x1e46;" horiz-adv-x="735" 
d="M454 628v41h241v-41l-85 -13v-622h-35l-400 545v-483l106 -14v-41h-242v41l85 12v555l-9 12l-71 8v41h154l361 -496v442zM382 -203q-28 0 -47.5 18t-19.5 46t19.5 46t47.5 18q29 0 48 -18t19 -46t-19 -46t-48 -18z" />
    <glyph glyph-name="uni1E47" unicode="&#x1e47;" horiz-adv-x="606" 
d="M40 0v36l74 14q1 38 1.5 82t0.5 78v48q0 41 -0.5 68t-2.5 57l-79 9v35l140 61l15 -10l8 -80q37 40 85 65t94 25q65 0 96.5 -43.5t31.5 -141.5v-93q0 -34 0.5 -78t1.5 -82l70 -14v-36h-232v36l74 14q1 37 1.5 81.5t0.5 78.5v85q0 69 -19.5 95t-63.5 26q-34 0 -66 -14
t-70 -46v-146q0 -33 0.5 -77.5t1.5 -82.5l69 -14v-36h-232zM309 -203q-28 0 -47.5 18t-19.5 46t19.5 46t47.5 18q29 0 48 -18t19 -46t-19 -46t-48 -18z" />
    <glyph glyph-name="uni1E48" unicode="&#x1e48;" horiz-adv-x="735" 
d="M454 628v41h241v-41l-85 -13v-622h-35l-400 545v-483l106 -14v-41h-242v41l85 12v555l-9 12l-71 8v41h154l361 -496v442zM241 -176v63h262v-63h-262z" />
    <glyph glyph-name="uni1E49" unicode="&#x1e49;" horiz-adv-x="606" 
d="M40 0v36l74 14q1 38 1.5 82t0.5 78v48q0 41 -0.5 68t-2.5 57l-79 9v35l140 61l15 -10l8 -80q37 40 85 65t94 25q65 0 96.5 -43.5t31.5 -141.5v-93q0 -34 0.5 -78t1.5 -82l70 -14v-36h-232v36l74 14q1 37 1.5 81.5t0.5 78.5v85q0 69 -19.5 95t-63.5 26q-34 0 -66 -14
t-70 -46v-146q0 -33 0.5 -77.5t1.5 -82.5l69 -14v-36h-232zM177 -176v63h262v-63h-262z" />
    <glyph glyph-name="uni1E5A" unicode="&#x1e5a;" horiz-adv-x="651" 
d="M321 623h-86q-1 -66 -1.5 -131.5t-0.5 -136.5h77q81 0 119.5 39t38.5 99q0 63 -35 96.5t-112 33.5zM44 628v41h280q115 0 179 -46t64 -129q0 -58 -42 -106t-126 -63q44 -9 72.5 -38.5t45.5 -88.5l43 -148l77 -9v-41q-15 -4 -33.5 -7t-41.5 -3q-47 0 -70.5 14t-32.5 50
l-40 160q-9 41 -26 61.5t-43.5 27.5t-67.5 7h-49q0 -72 0.5 -135t1.5 -123l92 -11v-41h-283v41l92 11q2 63 2 128v130v49v129.5t-2 128.5zM360 -203q-28 0 -47.5 18t-19.5 46t19.5 46t47.5 18q29 0 48 -18t19 -46t-19 -46t-48 -18z" />
    <glyph glyph-name="uni1E5B" unicode="&#x1e5b;" horiz-adv-x="423" 
d="M42 0v36l72 13q1 38 1.5 82.5t0.5 78.5v48q0 41 -0.5 68t-2.5 57l-79 9v35l140 61l15 -10l11 -118q25 60 64.5 94t79.5 34q23 0 43 -10t29 -27q0 -73 -59 -73q-17 0 -32 6.5t-29 18.5l-12 11q-30 -22 -50 -54t-33 -75v-75q0 -33 0.5 -77t1.5 -82l82 -15v-36h-243z
M157 -203q-28 0 -47.5 18t-19.5 46t19.5 46t47.5 18q29 0 48 -18t19 -46t-19 -46t-48 -18z" />
    <glyph glyph-name="uni1E5C" unicode="&#x1e5c;" horiz-adv-x="651" 
d="M321 623h-86q-1 -66 -1.5 -131.5t-0.5 -136.5h77q81 0 119.5 39t38.5 99q0 63 -35 96.5t-112 33.5zM44 628v41h280q115 0 179 -46t64 -129q0 -58 -42 -106t-126 -63q44 -9 72.5 -38.5t45.5 -88.5l43 -148l77 -9v-41q-15 -4 -33.5 -7t-41.5 -3q-47 0 -70.5 14t-32.5 50
l-40 160q-9 41 -26 61.5t-43.5 27.5t-67.5 7h-49q0 -72 0.5 -135t1.5 -123l92 -11v-41h-283v41l92 11q2 63 2 128v130v49v129.5t-2 128.5zM360 -203q-28 0 -47.5 18t-19.5 46t19.5 46t47.5 18q29 0 48 -18t19 -46t-19 -46t-48 -18zM178 758v63h302v-63h-302z" />
    <glyph glyph-name="uni1E5D" unicode="&#x1e5d;" horiz-adv-x="423" 
d="M42 0v36l72 13q1 38 1.5 82.5t0.5 78.5v48q0 41 -0.5 68t-2.5 57l-79 9v35l140 61l15 -10l11 -118q25 60 64.5 94t79.5 34q23 0 43 -10t29 -27q0 -73 -59 -73q-17 0 -32 6.5t-29 18.5l-12 11q-30 -22 -50 -54t-33 -75v-75q0 -33 0.5 -77t1.5 -82l82 -15v-36h-243z
M157 -203q-28 0 -47.5 18t-19.5 46t19.5 46t47.5 18q29 0 48 -18t19 -46t-19 -46t-48 -18zM106 596v63h262v-63h-262z" />
    <glyph glyph-name="uni1E5E" unicode="&#x1e5e;" horiz-adv-x="651" 
d="M321 623h-86q-1 -66 -1.5 -131.5t-0.5 -136.5h77q81 0 119.5 39t38.5 99q0 63 -35 96.5t-112 33.5zM44 628v41h280q115 0 179 -46t64 -129q0 -58 -42 -106t-126 -63q44 -9 72.5 -38.5t45.5 -88.5l43 -148l77 -9v-41q-15 -4 -33.5 -7t-41.5 -3q-47 0 -70.5 14t-32.5 50
l-40 160q-9 41 -26 61.5t-43.5 27.5t-67.5 7h-49q0 -72 0.5 -135t1.5 -123l92 -11v-41h-283v41l92 11q2 63 2 128v130v49v129.5t-2 128.5zM214 -176v63h262v-63h-262z" />
    <glyph glyph-name="uni1E5F" unicode="&#x1e5f;" horiz-adv-x="423" 
d="M42 0v36l72 13q1 38 1.5 82.5t0.5 78.5v48q0 41 -0.5 68t-2.5 57l-79 9v35l140 61l15 -10l11 -118q25 60 64.5 94t79.5 34q23 0 43 -10t29 -27q0 -73 -59 -73q-17 0 -32 6.5t-29 18.5l-12 11q-30 -22 -50 -54t-33 -75v-75q0 -33 0.5 -77t1.5 -82l82 -15v-36h-243z
M32 -176v63h262v-63h-262z" />
    <glyph glyph-name="uni1E60" unicode="&#x1e60;" horiz-adv-x="512" 
d="M235 -15q-56 0 -108 15.5t-87 37.5l6 140h62l20 -118q23 -13 47.5 -19t56.5 -6q71 0 113 31.5t42 89.5q0 48 -29.5 74.5t-93.5 51.5l-39 16q-77 30 -124.5 77.5t-47.5 123.5q0 58 29.5 99t80.5 63.5t115 22.5q50 0 91 -14t73 -38l-6 -131h-61l-21 113q-37 20 -82 20
q-57 0 -96 -28.5t-39 -84.5q0 -46 29.5 -76t83.5 -51l40 -15q98 -38 140 -85.5t42 -118.5q0 -59 -30.5 -101.5t-83.5 -65.5t-123 -23zM268 736q-28 0 -47.5 18t-19.5 46q0 29 19.5 46.5t47.5 17.5q29 0 48 -17.5t19 -46.5q0 -28 -19 -46t-48 -18z" />
    <glyph glyph-name="uni1E61" unicode="&#x1e61;" horiz-adv-x="434" 
d="M200 -13q-42 0 -77 9.5t-72 28.5l-4 110h55l19 -87q35 -16 81 -16q57 0 84.5 21t27.5 55q0 32 -23 51.5t-70 35.5l-46 17q-55 20 -88 52t-33 83q0 37 20 69t59 52t95 20q41 0 74.5 -10.5t65.5 -30.5l-4 -102h-52l-16 80q-34 17 -69 17q-46 0 -69.5 -18.5t-23.5 -49.5
q0 -33 20.5 -50t71.5 -36l31 -11q75 -28 106.5 -64t31.5 -83q0 -38 -22 -70.5t-65 -52.5t-108 -20zM228 589q-28 0 -47.5 18t-19.5 46t19.5 46t47.5 18q29 0 48 -18t19 -46t-19 -46t-48 -18z" />
    <glyph glyph-name="uni1E62" unicode="&#x1e62;" horiz-adv-x="512" 
d="M235 -15q-56 0 -108 15.5t-87 37.5l6 140h62l20 -118q23 -13 47.5 -19t56.5 -6q71 0 113 31.5t42 89.5q0 48 -29.5 74.5t-93.5 51.5l-39 16q-77 30 -124.5 77.5t-47.5 123.5q0 58 29.5 99t80.5 63.5t115 22.5q50 0 91 -14t73 -38l-6 -131h-61l-21 113q-37 20 -82 20
q-57 0 -96 -28.5t-39 -84.5q0 -46 29.5 -76t83.5 -51l40 -15q98 -38 140 -85.5t42 -118.5q0 -59 -30.5 -101.5t-83.5 -65.5t-123 -23zM262 -203q-28 0 -47.5 18t-19.5 46t19.5 46t47.5 18q29 0 48 -18t19 -46t-19 -46t-48 -18z" />
    <glyph glyph-name="uni1E63" unicode="&#x1e63;" horiz-adv-x="434" 
d="M200 -13q-42 0 -77 9.5t-72 28.5l-4 110h55l19 -87q35 -16 81 -16q57 0 84.5 21t27.5 55q0 32 -23 51.5t-70 35.5l-46 17q-55 20 -88 52t-33 83q0 37 20 69t59 52t95 20q41 0 74.5 -10.5t65.5 -30.5l-4 -102h-52l-16 80q-34 17 -69 17q-46 0 -69.5 -18.5t-23.5 -49.5
q0 -33 20.5 -50t71.5 -36l31 -11q75 -28 106.5 -64t31.5 -83q0 -38 -22 -70.5t-65 -52.5t-108 -20zM230 -203q-28 0 -47.5 18t-19.5 46t19.5 46t47.5 18q29 0 48 -18t19 -46t-19 -46t-48 -18z" />
    <glyph glyph-name="uni1E6C" unicode="&#x1e6c;" horiz-adv-x="604" 
d="M20 491l8 178h548l8 -178h-58l-22 128h-153q-1 -64 -1.5 -129t-0.5 -131v-49q0 -64 0.5 -128.5t1.5 -129.5l102 -11v-41h-302v41l102 11q2 64 2 128.5v129.5v49v130t-2 130h-153l-22 -128h-58zM303 -203q-28 0 -47.5 18t-19.5 46t19.5 46t47.5 18q29 0 48 -18t19 -46
t-19 -46t-48 -18z" />
    <glyph glyph-name="uni1E6D" unicode="&#x1e6d;" horiz-adv-x="325" 
d="M205 -13q-52 0 -83 28t-31 86q0 19 0.5 37.5t0.5 47.5v236h-83v44l89 11l26 134h60l-6 -136h135v-53h-136v-310q0 -38 15 -55.5t40 -17.5q17 0 32.5 7t34.5 20l24 -26q-41 -53 -118 -53zM207 -203q-28 0 -47.5 18t-19.5 46t19.5 46t47.5 18q29 0 48 -18t19 -46t-19 -46
t-48 -18z" />
    <glyph glyph-name="uni1E6E" unicode="&#x1e6e;" horiz-adv-x="604" 
d="M20 491l8 178h548l8 -178h-58l-22 128h-153q-1 -64 -1.5 -129t-0.5 -131v-49q0 -64 0.5 -128.5t1.5 -129.5l102 -11v-41h-302v41l102 11q2 64 2 128.5v129.5v49v130t-2 130h-153l-22 -128h-58zM173 -176v63h262v-63h-262z" />
    <glyph glyph-name="uni1E6F" unicode="&#x1e6f;" horiz-adv-x="325" 
d="M205 -13q-52 0 -83 28t-31 86q0 19 0.5 37.5t0.5 47.5v236h-83v44l89 11l26 134h60l-6 -136h135v-53h-136v-310q0 -38 15 -55.5t40 -17.5q17 0 32.5 7t34.5 20l24 -26q-41 -53 -118 -53zM75 -176v63h262v-63h-262z" />
    <glyph glyph-name="Wgrave" unicode="&#x1e80;" horiz-adv-x="962" 
d="M726 628v41h227v-41l-84 -12l-169 -623h-43l-173 518l-163 -518h-43l-180 625l-83 10v41h272v-41l-92 -11l123 -459l152 458l-100 12v41h272v-41l-101 -12l149 -463l127 462zM558 745l-18 -25q-32 17 -63.5 34t-62.5 33q-28 16 -39 29.5t-11 26.5q0 15 11 24.5t27 9.5
q13 0 27 -8.5t35 -29.5q49 -46 94 -94z" />
    <glyph glyph-name="wgrave" unicode="&#x1e81;" horiz-adv-x="764" 
d="M571 436v39h183v-39l-54 -13l-146 -429h-37l-130 355l-132 -355h-37l-161 432l-57 10v39h228v-39l-78 -12l103 -307l112 307l-74 12v39h221v-39l-74 -13l114 -305l93 304zM438 576l-26 -19q-31 27 -60.5 53.5t-60.5 54.5q-21 20 -27.5 32.5t-6.5 22.5q0 20 11.5 29
t26.5 9q14 0 27 -9t27 -32q24 -36 45.5 -71t43.5 -70z" />
    <glyph glyph-name="Wacute" unicode="&#x1e82;" horiz-adv-x="962" 
d="M726 628v41h227v-41l-84 -12l-169 -623h-43l-173 518l-163 -518h-43l-180 625l-83 10v41h272v-41l-92 -11l123 -459l152 458l-100 12v41h272v-41l-101 -12l149 -463l127 462zM456 745q46 49 94 94q21 21 35 29.5t27 8.5q16 0 27 -9.5t11 -24.5q0 -13 -10.5 -26t-39.5 -29
q-31 -17 -62.5 -34t-63.5 -34z" />
    <glyph glyph-name="wacute" unicode="&#x1e83;" horiz-adv-x="764" 
d="M571 436v39h183v-39l-54 -13l-146 -429h-37l-130 355l-132 -355h-37l-161 432l-57 10v39h228v-39l-78 -12l103 -307l112 307l-74 12v39h221v-39l-74 -13l114 -305l93 304zM356 576q42 71 89 141q14 23 27.5 32t26.5 9q14 0 26 -9t12 -29q0 -10 -6.5 -22.5t-27.5 -32.5
q-31 -28 -60.5 -54.5t-60.5 -53.5z" />
    <glyph glyph-name="Wdieresis" unicode="&#x1e84;" horiz-adv-x="962" 
d="M726 628v41h227v-41l-84 -12l-169 -623h-43l-173 518l-163 -518h-43l-180 625l-83 10v41h272v-41l-92 -11l123 -459l152 458l-100 12v41h272v-41l-101 -12l149 -463l127 462zM399 744q-23 0 -40.5 15.5t-17.5 39.5t17.5 39.5t40.5 15.5q24 0 40.5 -15.5t16.5 -39.5
t-16.5 -39.5t-40.5 -15.5zM622 744q-24 0 -40.5 15.5t-16.5 39.5t16.5 39.5t40.5 15.5q23 0 40.5 -15.5t17.5 -39.5t-17.5 -39.5t-40.5 -15.5z" />
    <glyph glyph-name="wdieresis" unicode="&#x1e85;" horiz-adv-x="764" 
d="M571 436v39h183v-39l-54 -13l-146 -429h-37l-130 355l-132 -355h-37l-161 432l-57 10v39h228v-39l-78 -12l103 -307l112 307l-74 12v39h221v-39l-74 -13l114 -305l93 304zM297 596q-24 0 -41.5 16t-17.5 41q0 24 17.5 40.5t41.5 16.5q25 0 42.5 -16.5t17.5 -40.5
q0 -25 -17.5 -41t-42.5 -16zM507 596q-25 0 -42.5 16t-17.5 41q0 24 17.5 40.5t42.5 16.5q24 0 41.5 -16.5t17.5 -40.5q0 -25 -17.5 -41t-41.5 -16z" />
    <glyph glyph-name="uni1E8E" unicode="&#x1e8e;" horiz-adv-x="633" 
d="M15 628v41h282v-41l-95 -11l139 -303l143 302l-90 12v41h229v-41l-88 -13l-170 -352q0 -58 0.5 -110.5t1.5 -100.5l102 -11v-41h-302v41l102 11q2 47 2 98v109l-177 360zM346 736q-28 0 -47.5 18t-19.5 46q0 29 19.5 46.5t47.5 17.5q29 0 48 -17.5t19 -46.5
q0 -28 -19 -46t-48 -18z" />
    <glyph glyph-name="uni1E8F" unicode="&#x1e8f;" horiz-adv-x="512" 
d="M317 439v36h195v-36l-54 -11l-161 -425q-50 -133 -96.5 -192.5t-108.5 -59.5q-37 0 -64.5 18.5t-27.5 47.5q5 22 24.5 33t42.5 11q20 0 37 -8.5t37 -29.5l5 -5q32 27 54 65.5t36 78.5l4 12l-181 457l-55 8v36h240v-37l-88 -10l125 -341l123 340zM282 589q-28 0 -47.5 18
t-19.5 46t19.5 46t47.5 18q29 0 48 -18t19 -46t-19 -46t-48 -18z" />
    <glyph glyph-name="uni1E92" unicode="&#x1e92;" horiz-adv-x="551" 
d="M20 0v36l378 583h-280l-27 -128h-61l8 178h471v-35l-377 -584h311l27 128h61l-8 -178h-503zM287 -203q-28 0 -47.5 18t-19.5 46t19.5 46t47.5 18q29 0 48 -18t19 -46t-19 -46t-48 -18z" />
    <glyph glyph-name="uni1E93" unicode="&#x1e93;" horiz-adv-x="456" 
d="M29 0v35l287 397h-202l-27 -111l-52 4l8 150h373v-36l-286 -397h219l30 121h52l-10 -163h-392zM243 -203q-28 0 -47.5 18t-19.5 46t19.5 46t47.5 18q29 0 48 -18t19 -46t-19 -46t-48 -18z" />
    <glyph glyph-name="uni1E97" unicode="&#x1e97;" horiz-adv-x="325" 
d="M205 -13q-52 0 -83 28t-31 86q0 19 0.5 37.5t0.5 47.5v236h-83v44l89 11l26 134h60l-6 -136h135v-53h-136v-310q0 -38 15 -55.5t40 -17.5q17 0 32.5 7t34.5 20l24 -26q-41 -53 -118 -53zM47 732q-24 0 -41.5 16t-17.5 41q0 24 17.5 40.5t41.5 16.5q25 0 42.5 -16.5
t17.5 -40.5q0 -25 -17.5 -41t-42.5 -16zM257 732q-25 0 -42.5 16t-17.5 41q0 24 17.5 40.5t42.5 16.5q24 0 41.5 -16.5t17.5 -40.5q0 -25 -17.5 -41t-41.5 -16z" />
    <glyph glyph-name="uni1E9E" unicode="&#x1e9e;" horiz-adv-x="690" 
d="M44 0v41l92 11q2 65 2 129.5v128.5v107q0 139 66 203t199 64q95 0 174 -44v-26q-101 -45 -101 -144q0 -46 16.5 -70.5t46.5 -48.5l37 -29q49 -39 70.5 -77t21.5 -85q0 -40 -19.5 -80.5t-60.5 -67.5t-105 -27q-36 0 -71.5 11t-59.5 32l6 133h50l18 -118q13 -7 24.5 -9.5
t23.5 -2.5q50 0 80 30t30 75q0 32 -15.5 58t-46.5 50l-35 27q-46 36 -70 76t-24 93q0 58 32 106t92 76q-26 5 -52.5 8.5t-57.5 3.5q-94 0 -134 -49t-40 -165v-111q0 -78 0.5 -155.5t2.5 -153.5h-192z" />
    <glyph glyph-name="uni1EA0" unicode="&#x1ea0;" horiz-adv-x="664" 
d="M309 562l-101 -298h201zM5 0v41l84 13l213 620h63l213 -624l75 -9v-41h-272v41l98 12l-55 164h-232l-56 -163l98 -13v-41h-229zM328 -203q-28 0 -47.5 18t-19.5 46t19.5 46t47.5 18q29 0 48 -18t19 -46t-19 -46t-48 -18z" />
    <glyph glyph-name="uni1EA1" unicode="&#x1ea1;" horiz-adv-x="509" 
d="M416 -10q-36 0 -60 21t-30 56q-41 -40 -72 -60t-75 -20q-55 0 -94.5 31.5t-39.5 93.5q0 29 13.5 54t49.5 49t103 48q23 8 53 17t60 16v25q0 73 -22 97t-72 24q-11 0 -24.5 -1t-29.5 -5l-19 -65q-14 -48 -52 -48q-42 0 -47 41q14 57 66.5 90.5t128.5 33.5q79 0 117 -39.5
t38 -134.5v-213q0 -32 10 -45.5t26 -13.5q13 0 22 6t17 16l20 -22q-18 -29 -39.5 -40.5t-47.5 -11.5zM134 127q0 -40 23 -57t57 -17q15 0 28.5 4t32.5 15.5t49 33.5v153q-26 -7 -51 -15.5t-41 -14.5q-43 -17 -64 -35t-27.5 -35t-6.5 -32zM249 -203q-28 0 -47.5 18t-19.5 46
t19.5 46t47.5 18q29 0 48 -18t19 -46t-19 -46t-48 -18z" />
    <glyph glyph-name="uni1EA2" unicode="&#x1ea2;" horiz-adv-x="664" 
d="M309 562l-101 -298h201zM5 0v41l84 13l213 620h63l213 -624l75 -9v-41h-272v41l98 12l-55 164h-232l-56 -163l98 -13v-41h-229zM310 717l-9 31q29 6 41 13.5t12 19.5q0 27 -83 34l10 67q122 -11 122 -87q0 -31 -24.5 -51.5t-68.5 -26.5z" />
    <glyph glyph-name="uni1EA3" unicode="&#x1ea3;" horiz-adv-x="509" 
d="M416 -10q-36 0 -60 21t-30 56q-41 -40 -72 -60t-75 -20q-55 0 -94.5 31.5t-39.5 93.5q0 29 13.5 54t49.5 49t103 48q23 8 53 17t60 16v25q0 73 -22 97t-72 24q-11 0 -24.5 -1t-29.5 -5l-19 -65q-14 -48 -52 -48q-42 0 -47 41q14 57 66.5 90.5t128.5 33.5q79 0 117 -39.5
t38 -134.5v-213q0 -32 10 -45.5t26 -13.5q13 0 22 6t17 16l20 -22q-18 -29 -39.5 -40.5t-47.5 -11.5zM134 127q0 -40 23 -57t57 -17q15 0 28.5 4t32.5 15.5t49 33.5v153q-26 -7 -51 -15.5t-41 -14.5q-43 -17 -64 -35t-27.5 -35t-6.5 -32zM247 553l-9 31q29 6 41 18.5
t12 29.5q0 21 -19 31t-64 17l10 67q122 -11 122 -100q0 -38 -24.5 -63.5t-68.5 -30.5z" />
    <glyph glyph-name="uni1EA4" unicode="&#x1ea4;" horiz-adv-x="664" 
d="M309 562l-101 -298h201zM5 0v41l84 13l213 620h63l213 -624l75 -9v-41h-272v41l98 12l-55 164h-232l-56 -163l98 -13v-41h-229zM202 697l-19 25l131 115h34l131 -115l-19 -25l-129 74zM454 782l-21 22l48 60q13 17 25.5 24t22.5 7q14 0 23 -8.5t9 -21.5q0 -12 -8 -23
t-38 -27z" />
    <glyph glyph-name="uni1EA5" unicode="&#x1ea5;" horiz-adv-x="509" 
d="M416 -10q-36 0 -60 21t-30 56q-41 -40 -72 -60t-75 -20q-55 0 -94.5 31.5t-39.5 93.5q0 29 13.5 54t49.5 49t103 48q23 8 53 17t60 16v25q0 73 -22 97t-72 24q-11 0 -24.5 -1t-29.5 -5l-19 -65q-14 -48 -52 -48q-42 0 -47 41q14 57 66.5 90.5t128.5 33.5q79 0 117 -39.5
t38 -134.5v-213q0 -32 10 -45.5t26 -13.5q13 0 22 6t17 16l20 -22q-18 -29 -39.5 -40.5t-47.5 -11.5zM134 127q0 -40 23 -57t57 -17q15 0 28.5 4t32.5 15.5t49 33.5v153q-26 -7 -51 -15.5t-41 -14.5q-43 -17 -64 -35t-27.5 -35t-6.5 -32zM127 536l-19 25l131 115h34
l131 -115l-19 -25l-129 74zM378 635l-25 22l50 88q11 21 23.5 30.5t23.5 9.5q14 0 25 -9t11 -26q0 -9 -5.5 -21t-25.5 -28z" />
    <glyph glyph-name="uni1EA6" unicode="&#x1ea6;" horiz-adv-x="664" 
d="M309 562l-101 -298h201zM5 0v41l84 13l213 620h63l213 -624l75 -9v-41h-272v41l98 12l-55 164h-232l-56 -163l98 -13v-41h-229zM459 697l-129 74l-129 -74l-19 25l131 115h34l131 -115zM197 784l-61 31q-30 15 -38 26.5t-8 23.5q0 13 9.5 21.5t22.5 8.5q11 0 23 -6.5
t26 -24.5l48 -58z" />
    <glyph glyph-name="uni1EA7" unicode="&#x1ea7;" horiz-adv-x="509" 
d="M416 -10q-36 0 -60 21t-30 56q-41 -40 -72 -60t-75 -20q-55 0 -94.5 31.5t-39.5 93.5q0 29 13.5 54t49.5 49t103 48q23 8 53 17t60 16v25q0 73 -22 97t-72 24q-11 0 -24.5 -1t-29.5 -5l-19 -65q-14 -48 -52 -48q-42 0 -47 41q14 57 66.5 90.5t128.5 33.5q79 0 117 -39.5
t38 -134.5v-213q0 -32 10 -45.5t26 -13.5q13 0 22 6t17 16l20 -22q-18 -29 -39.5 -40.5t-47.5 -11.5zM134 127q0 -40 23 -57t57 -17q15 0 28.5 4t32.5 15.5t49 33.5v153q-26 -7 -51 -15.5t-41 -14.5q-43 -17 -64 -35t-27.5 -35t-6.5 -32zM68 701q-19 16 -25 28t-6 21
q0 17 11 26t24 9q25 0 48 -40l49 -88l-24 -22zM128 536l-19 25l131 115h34l131 -115l-19 -25l-129 74z" />
    <glyph glyph-name="uni1EA8" unicode="&#x1ea8;" horiz-adv-x="664" 
d="M309 562l-101 -298h201zM5 0v41l84 13l213 620h63l213 -624l75 -9v-41h-272v41l98 12l-55 164h-232l-56 -163l98 -13v-41h-229zM201 697l-19 25l131 115h34l131 -115l-19 -25l-129 74zM441 798q29 6 41 13.5t12 19.5q0 27 -83 34l10 67q122 -12 122 -87q0 -31 -24.5 -52
t-68.5 -26z" />
    <glyph glyph-name="uni1EA9" unicode="&#x1ea9;" horiz-adv-x="509" 
d="M416 -10q-36 0 -60 21t-30 56q-41 -40 -72 -60t-75 -20q-55 0 -94.5 31.5t-39.5 93.5q0 29 13.5 54t49.5 49t103 48q23 8 53 17t60 16v25q0 73 -22 97t-72 24q-11 0 -24.5 -1t-29.5 -5l-19 -65q-14 -48 -52 -48q-42 0 -47 41q14 57 66.5 90.5t128.5 33.5q79 0 117 -39.5
t38 -134.5v-213q0 -32 10 -45.5t26 -13.5q13 0 22 6t17 16l20 -22q-18 -29 -39.5 -40.5t-47.5 -11.5zM134 127q0 -40 23 -57t57 -17q15 0 28.5 4t32.5 15.5t49 33.5v153q-26 -7 -51 -15.5t-41 -14.5q-43 -17 -64 -35t-27.5 -35t-6.5 -32zM127 536l-19 25l131 115h34
l131 -115l-19 -25l-129 74zM371 652q29 7 41 19t12 29q0 22 -19 31.5t-64 16.5l10 67q122 -11 122 -100q0 -38 -24.5 -63.5t-68.5 -30.5z" />
    <glyph glyph-name="uni1EAA" unicode="&#x1eaa;" horiz-adv-x="664" 
d="M309 562l-101 -298h201zM5 0v41l84 13l213 620h63l213 -624l75 -9v-41h-272v41l98 12l-55 164h-232l-56 -163l98 -13v-41h-229zM198 699l-16 25l131 95h34l131 -95l-16 -25l-132 59zM167 854q6 41 30 65.5t65 24.5q26 0 42.5 -6.5t32.5 -15.5q17 -9 33.5 -16.5t36.5 -7.5
q23 0 38 12t24 34l24 -11q-7 -40 -30 -64.5t-65 -24.5q-25 0 -42.5 6.5t-32.5 15.5q-16 9 -33 16.5t-37 7.5q-22 0 -37.5 -12t-24.5 -34z" />
    <glyph glyph-name="uni1EAB" unicode="&#x1eab;" horiz-adv-x="509" 
d="M416 -10q-36 0 -60 21t-30 56q-41 -40 -72 -60t-75 -20q-55 0 -94.5 31.5t-39.5 93.5q0 29 13.5 54t49.5 49t103 48q23 8 53 17t60 16v25q0 73 -22 97t-72 24q-11 0 -24.5 -1t-29.5 -5l-19 -65q-14 -48 -52 -48q-42 0 -47 41q14 57 66.5 90.5t128.5 33.5q79 0 117 -39.5
t38 -134.5v-213q0 -32 10 -45.5t26 -13.5q13 0 22 6t17 16l20 -22q-18 -29 -39.5 -40.5t-47.5 -11.5zM134 127q0 -40 23 -57t57 -17q15 0 28.5 4t32.5 15.5t49 33.5v153q-26 -7 -51 -15.5t-41 -14.5q-43 -17 -64 -35t-27.5 -35t-6.5 -32zM127 536l-19 25l131 114h34
l131 -114l-19 -25l-129 73zM93 705q6 41 30 65.5t65 24.5q26 0 42.5 -6.5t32.5 -14.5q17 -10 33.5 -17.5t36.5 -7.5q43 0 62 47l24 -12q-7 -40 -30 -64.5t-65 -24.5q-25 0 -42.5 6.5t-32.5 15.5q-16 10 -33 17t-37 7q-22 0 -37.5 -12t-24.5 -34z" />
    <glyph glyph-name="uni1EAC" unicode="&#x1eac;" horiz-adv-x="664" 
d="M309 562l-101 -298h201zM5 0v41l84 13l213 620h63l213 -624l75 -9v-41h-272v41l98 12l-55 164h-232l-56 -163l98 -13v-41h-229zM349 837l131 -115l-19 -25l-129 74l-129 -74l-19 25l131 115h34zM328 -203q-28 0 -47.5 18t-19.5 46t19.5 46t47.5 18q29 0 48 -18t19 -46
t-19 -46t-48 -18z" />
    <glyph glyph-name="uni1EAD" unicode="&#x1ead;" horiz-adv-x="509" 
d="M416 -10q-36 0 -60 21t-30 56q-41 -40 -72 -60t-75 -20q-55 0 -94.5 31.5t-39.5 93.5q0 29 13.5 54t49.5 49t103 48q23 8 53 17t60 16v25q0 73 -22 97t-72 24q-11 0 -24.5 -1t-29.5 -5l-19 -65q-14 -48 -52 -48q-42 0 -47 41q14 57 66.5 90.5t128.5 33.5q79 0 117 -39.5
t38 -134.5v-213q0 -32 10 -45.5t26 -13.5q13 0 22 6t17 16l20 -22q-18 -29 -39.5 -40.5t-47.5 -11.5zM134 127q0 -40 23 -57t57 -17q15 0 28.5 4t32.5 15.5t49 33.5v153q-26 -7 -51 -15.5t-41 -14.5q-43 -17 -64 -35t-27.5 -35t-6.5 -32zM378 546l-126 114l-126 -114l-23 22
l132 176h34l132 -176zM249 -203q-28 0 -47.5 18t-19.5 46t19.5 46t47.5 18q29 0 48 -18t19 -46t-19 -46t-48 -18z" />
    <glyph glyph-name="uni1EAE" unicode="&#x1eae;" horiz-adv-x="664" 
d="M309 562l-101 -298h201zM5 0v41l84 13l213 620h63l213 -624l75 -9v-41h-272v41l98 12l-55 164h-232l-56 -163l98 -13v-41h-229zM330 731q-46 0 -76.5 19.5t-46.5 48.5t-21 59l31 11q13 -34 40.5 -56t72.5 -22t74 21.5t40 55.5l30 -10q-4 -30 -20.5 -59t-47 -48.5
t-76.5 -19.5zM303 852l49 100q20 43 46 43q13 0 24 -9t11 -23q0 -11 -4.5 -22.5t-21.5 -28.5l-78 -80z" />
    <glyph glyph-name="uni1EAF" unicode="&#x1eaf;" horiz-adv-x="509" 
d="M416 -10q-36 0 -60 21t-30 56q-41 -40 -72 -60t-75 -20q-55 0 -94.5 31.5t-39.5 93.5q0 29 13.5 54t49.5 49t103 48q23 8 53 17t60 16v25q0 73 -22 97t-72 24q-11 0 -24.5 -1t-29.5 -5l-19 -65q-14 -48 -52 -48q-42 0 -47 41q14 57 66.5 90.5t128.5 33.5q79 0 117 -39.5
t38 -134.5v-213q0 -32 10 -45.5t26 -13.5q13 0 22 6t17 16l20 -22q-18 -29 -39.5 -40.5t-47.5 -11.5zM134 127q0 -40 23 -57t57 -17q15 0 28.5 4t32.5 15.5t49 33.5v153q-26 -7 -51 -15.5t-41 -14.5q-43 -17 -64 -35t-27.5 -35t-6.5 -32zM257 574q-46 0 -76.5 19.5t-46.5 49
t-21 59.5l31 11q13 -34 40.5 -56.5t72.5 -22.5t74 22t40 56l30 -10q-4 -30 -20.5 -59.5t-47 -49t-76.5 -19.5zM230 695l47 98q22 46 48 46q12 0 23.5 -9.5t11.5 -23.5q0 -11 -5.5 -23t-23.5 -30l-74 -78z" />
    <glyph glyph-name="uni1EB0" unicode="&#x1eb0;" horiz-adv-x="664" 
d="M309 562l-101 -298h201zM5 0v41l84 13l213 620h63l213 -624l75 -9v-41h-272v41l98 12l-55 164h-232l-56 -163l98 -13v-41h-229zM330 731q-46 0 -76.5 19.5t-46.5 48.5t-21 59l30 10q11 -34 40 -55.5t74 -21.5t72.5 22t40.5 56l31 -11q-4 -30 -20.5 -59t-47 -48.5
t-76.5 -19.5zM357 852l-26 -20l-78 80q-16 17 -21 28.5t-5 22.5q0 14 11 23t24 9q26 0 46 -43z" />
    <glyph glyph-name="uni1EB1" unicode="&#x1eb1;" horiz-adv-x="509" 
d="M416 -10q-36 0 -60 21t-30 56q-41 -40 -72 -60t-75 -20q-55 0 -94.5 31.5t-39.5 93.5q0 29 13.5 54t49.5 49t103 48q23 8 53 17t60 16v25q0 73 -22 97t-72 24q-11 0 -24.5 -1t-29.5 -5l-19 -65q-14 -48 -52 -48q-42 0 -47 41q14 57 66.5 90.5t128.5 33.5q79 0 117 -39.5
t38 -134.5v-213q0 -32 10 -45.5t26 -13.5q13 0 22 6t17 16l20 -22q-18 -29 -39.5 -40.5t-47.5 -11.5zM134 127q0 -40 23 -57t57 -17q15 0 28.5 4t32.5 15.5t49 33.5v153q-26 -7 -51 -15.5t-41 -14.5q-43 -17 -64 -35t-27.5 -35t-6.5 -32zM113 702l31 11q13 -34 40.5 -56.5
t72.5 -22.5t74 22t40 56l30 -10q-4 -30 -20.5 -59.5t-47 -49t-76.5 -19.5t-76.5 19.5t-46.5 49t-21 59.5zM183 753q-18 18 -23.5 30t-5.5 23q0 14 11.5 23.5t23.5 9.5q26 0 48 -46l47 -98l-27 -20z" />
    <glyph glyph-name="uni1EB2" unicode="&#x1eb2;" horiz-adv-x="664" 
d="M309 562l-101 -298h201zM5 0v41l84 13l213 620h63l213 -624l75 -9v-41h-272v41l98 12l-55 164h-232l-56 -163l98 -13v-41h-229zM311 824l-9 31q29 6 41 13.5t12 19.5q0 27 -83 34l10 67q122 -11 122 -87q0 -31 -24.5 -51.5t-68.5 -26.5zM186 858l31 11q11 -34 40 -55.5
t73 -21.5q45 0 72.5 21.5t40.5 55.5l31 -11q-4 -30 -21 -59t-47.5 -48.5t-75.5 -19.5t-75.5 19.5t-47 48.5t-21.5 59z" />
    <glyph glyph-name="uni1EB3" unicode="&#x1eb3;" horiz-adv-x="509" 
d="M416 -10q-36 0 -60 21t-30 56q-41 -40 -72 -60t-75 -20q-55 0 -94.5 31.5t-39.5 93.5q0 29 13.5 54t49.5 49t103 48q23 8 53 17t60 16v25q0 73 -22 97t-72 24q-11 0 -24.5 -1t-29.5 -5l-19 -65q-14 -48 -52 -48q-42 0 -47 41q14 57 66.5 90.5t128.5 33.5q79 0 117 -39.5
t38 -134.5v-213q0 -32 10 -45.5t26 -13.5q13 0 22 6t17 16l20 -22q-18 -29 -39.5 -40.5t-47.5 -11.5zM134 127q0 -40 23 -57t57 -17q15 0 28.5 4t32.5 15.5t49 33.5v153q-26 -7 -51 -15.5t-41 -14.5q-43 -17 -64 -35t-27.5 -35t-6.5 -32zM238 688l-9 31q29 6 41 13.5
t12 19.5q0 27 -83 34l10 67q122 -11 122 -87q0 -31 -24.5 -51.5t-68.5 -26.5zM113 701l31 11q11 -34 40 -55.5t73 -21.5q45 0 72.5 21.5t40.5 55.5l31 -11q-4 -30 -21 -59t-47.5 -48.5t-75.5 -19.5t-75.5 19.5t-47 48.5t-21.5 59z" />
    <glyph glyph-name="uni1EB4" unicode="&#x1eb4;" horiz-adv-x="664" 
d="M309 562l-101 -298h201zM5 0v41l84 13l213 620h63l213 -624l75 -9v-41h-272v41l98 12l-55 164h-232l-56 -163l98 -13v-41h-229zM167 874q6 41 30 65.5t65 24.5q26 0 42.5 -6.5t32.5 -15.5q17 -9 33.5 -16.5t36.5 -7.5q23 0 38 12t24 34l24 -11q-7 -40 -30 -64.5
t-65 -24.5q-25 0 -42.5 6.5t-32.5 15.5q-16 9 -33 16.5t-37 7.5q-22 0 -37.5 -12t-24.5 -34zM330 731q-45 0 -73 16.5t-44 41.5t-24 50l28 11q17 -27 42.5 -43t70.5 -16t71.5 16t42.5 42l27 -10q-8 -25 -24 -50t-44 -41.5t-73 -16.5z" />
    <glyph glyph-name="uni1EB5" unicode="&#x1eb5;" horiz-adv-x="509" 
d="M416 -10q-36 0 -60 21t-30 56q-41 -40 -72 -60t-75 -20q-55 0 -94.5 31.5t-39.5 93.5q0 29 13.5 54t49.5 49t103 48q23 8 53 17t60 16v25q0 73 -22 97t-72 24q-11 0 -24.5 -1t-29.5 -5l-19 -65q-14 -48 -52 -48q-42 0 -47 41q14 57 66.5 90.5t128.5 33.5q79 0 117 -39.5
t38 -134.5v-213q0 -32 10 -45.5t26 -13.5q13 0 22 6t17 16l20 -22q-18 -29 -39.5 -40.5t-47.5 -11.5zM134 127q0 -40 23 -57t57 -17q15 0 28.5 4t32.5 15.5t49 33.5v153q-26 -7 -51 -15.5t-41 -14.5q-43 -17 -64 -35t-27.5 -35t-6.5 -32zM257 574q-46 0 -76.5 19.5t-46.5 49
t-21 59.5l31 11q13 -34 40.5 -56.5t72.5 -22.5t74 22t40 56l30 -10q-4 -30 -20.5 -59.5t-47 -49t-76.5 -19.5zM94 734q6 41 30 65.5t65 24.5q26 0 42.5 -6.5t32.5 -15.5q17 -9 33.5 -16.5t36.5 -7.5q23 0 38 12t24 34l24 -11q-7 -40 -30 -64.5t-65 -24.5q-25 0 -42.5 6.5
t-32.5 15.5q-16 9 -33 16.5t-37 7.5q-22 0 -37.5 -12t-24.5 -34z" />
    <glyph glyph-name="uni1EB6" unicode="&#x1eb6;" horiz-adv-x="664" 
d="M309 562l-101 -298h201zM5 0v41l84 13l213 620h63l213 -624l75 -9v-41h-272v41l98 12l-55 164h-232l-56 -163l98 -13v-41h-229zM191 848l31 11q11 -34 40 -55.5t73 -21.5q45 0 72.5 21.5t40.5 55.5l31 -11q-4 -30 -21 -59t-47.5 -48.5t-75.5 -19.5t-75.5 19.5t-47 48.5
t-21.5 59zM329 -203q-28 0 -47.5 18t-19.5 46t19.5 46t47.5 18q29 0 48 -18t19 -46t-19 -46t-48 -18z" />
    <glyph glyph-name="uni1EB7" unicode="&#x1eb7;" horiz-adv-x="509" 
d="M416 -10q-36 0 -60 21t-30 56q-41 -40 -72 -60t-75 -20q-55 0 -94.5 31.5t-39.5 93.5q0 29 13.5 54t49.5 49t103 48q23 8 53 17t60 16v25q0 73 -22 97t-72 24q-11 0 -24.5 -1t-29.5 -5l-19 -65q-14 -48 -52 -48q-42 0 -47 41q14 57 66.5 90.5t128.5 33.5q79 0 117 -39.5
t38 -134.5v-213q0 -32 10 -45.5t26 -13.5q13 0 22 6t17 16l20 -22q-18 -29 -39.5 -40.5t-47.5 -11.5zM134 127q0 -40 23 -57t57 -17q15 0 28.5 4t32.5 15.5t49 33.5v153q-26 -7 -51 -15.5t-41 -14.5q-43 -17 -64 -35t-27.5 -35t-6.5 -32zM106 723l30 11q15 -39 43.5 -66
t77.5 -27q50 0 78 27t43 66l30 -11q-4 -38 -22.5 -72t-50.5 -55t-78 -21t-78 21t-50 55t-23 72zM249 -203q-28 0 -47.5 18t-19.5 46t19.5 46t47.5 18q29 0 48 -18t19 -46t-19 -46t-48 -18z" />
    <glyph glyph-name="uni1EB8" unicode="&#x1eb8;" horiz-adv-x="603" 
d="M44 628v41h498l7 -177h-57l-22 127h-235q-1 -64 -1.5 -128t-0.5 -126h147l14 95h46v-236h-46l-13 94h-148q0 -75 0.5 -140.5t1.5 -127.5h255l22 128h57l-7 -178h-518v41l92 11q2 63 2 128v130v49v129.5t-2 128.5zM334 -203q-28 0 -47.5 18t-19.5 46t19.5 46t47.5 18
q29 0 48 -18t19 -46t-19 -46t-48 -18z" />
    <glyph glyph-name="uni1EB9" unicode="&#x1eb9;" horiz-adv-x="510" 
d="M269 442q-28 0 -56.5 -16t-49 -51t-26.5 -93h182q36 0 47.5 15t11.5 37q0 29 -14.5 53.5t-39 39.5t-55.5 15zM268 -13q-101 0 -162 65.5t-61 180.5q0 77 31.5 134t84 89t114.5 32q52 0 94 -23t67 -65.5t25 -103.5q0 -17 -2 -31.5t-5 -24.5h-319q2 -92 46 -140t116 -48
q48 0 80 19.5t59 50.5l24 -19q-28 -53 -76 -84.5t-116 -31.5zM269 -203q-28 0 -47.5 18t-19.5 46t19.5 46t47.5 18q29 0 48 -18t19 -46t-19 -46t-48 -18z" />
    <glyph glyph-name="uni1EBA" unicode="&#x1eba;" horiz-adv-x="603" 
d="M44 628v41h498l7 -177h-57l-22 127h-235q-1 -64 -1.5 -128t-0.5 -126h147l14 95h46v-236h-46l-13 94h-148q0 -75 0.5 -140.5t1.5 -127.5h255l22 128h57l-7 -178h-518v41l92 11q2 63 2 128v130v49v129.5t-2 128.5zM303 717l-9 31q29 6 41 13.5t12 19.5q0 27 -83 34l10 67
q122 -11 122 -87q0 -31 -24.5 -51.5t-68.5 -26.5z" />
    <glyph glyph-name="uni1EBB" unicode="&#x1ebb;" horiz-adv-x="510" 
d="M269 442q-28 0 -56.5 -16t-49 -51t-26.5 -93h182q36 0 47.5 15t11.5 37q0 29 -14.5 53.5t-39 39.5t-55.5 15zM268 -13q-101 0 -162 65.5t-61 180.5q0 77 31.5 134t84 89t114.5 32q52 0 94 -23t67 -65.5t25 -103.5q0 -17 -2 -31.5t-5 -24.5h-319q2 -92 46 -140t116 -48
q48 0 80 19.5t59 50.5l24 -19q-28 -53 -76 -84.5t-116 -31.5zM251 553l-9 31q29 6 41 18.5t12 29.5q0 21 -19 31t-64 17l10 67q122 -11 122 -100q0 -38 -24.5 -63.5t-68.5 -30.5z" />
    <glyph glyph-name="uni1EBC" unicode="&#x1ebc;" horiz-adv-x="603" 
d="M44 628v41h498l7 -177h-57l-22 127h-235q-1 -64 -1.5 -128t-0.5 -126h147l14 95h46v-236h-46l-13 94h-148q0 -75 0.5 -140.5t1.5 -127.5h255l22 128h57l-7 -178h-518v41l92 11q2 63 2 128v130v49v129.5t-2 128.5zM142 734q9 59 34 94t71 35q27 0 46 -10.5t38 -26.5
q17 -13 34 -29t39 -16q25 0 41 21.5t27 58.5l30 -10q-10 -58 -34 -93t-70 -35q-28 0 -46.5 10t-35.5 23q-19 16 -36 32t-40 16q-24 0 -40.5 -21t-27.5 -58z" />
    <glyph glyph-name="uni1EBD" unicode="&#x1ebd;" horiz-adv-x="510" 
d="M269 442q-28 0 -56.5 -16t-49 -51t-26.5 -93h182q36 0 47.5 15t11.5 37q0 29 -14.5 53.5t-39 39.5t-55.5 15zM268 -13q-101 0 -162 65.5t-61 180.5q0 77 31.5 134t84 89t114.5 32q52 0 94 -23t67 -65.5t25 -103.5q0 -17 -2 -31.5t-5 -24.5h-319q2 -92 46 -140t116 -48
q48 0 80 19.5t59 50.5l24 -19q-28 -53 -76 -84.5t-116 -31.5zM107 586q8 59 31 94t64 35q25 0 42 -10t31 -24q18 -17 33.5 -32.5t35.5 -15.5q23 0 37.5 21.5t24.5 58.5l27 -10q-9 -58 -31 -93t-64 -35q-25 0 -41.5 9.5t-31.5 23.5q-16 17 -32.5 32.5t-36.5 15.5
q-22 0 -36.5 -21t-25.5 -58z" />
    <glyph glyph-name="uni1EBE" unicode="&#x1ebe;" horiz-adv-x="603" 
d="M44 628v41h498l7 -177h-57l-22 127h-235q-1 -64 -1.5 -128t-0.5 -126h147l14 95h46v-236h-46l-13 94h-148q0 -75 0.5 -140.5t1.5 -127.5h255l22 128h57l-7 -178h-518v41l92 11q2 63 2 128v130v49v129.5t-2 128.5zM203 716l-19 25l131 115h34l131 -115l-19 -25l-129 74z
M455 801l-21 22l48 60q13 17 25.5 24t22.5 7q14 0 23 -8.5t9 -21.5q0 -12 -8 -23t-38 -27z" />
    <glyph glyph-name="uni1EBF" unicode="&#x1ebf;" horiz-adv-x="510" 
d="M269 442q-28 0 -56.5 -16t-49 -51t-26.5 -93h182q36 0 47.5 15t11.5 37q0 29 -14.5 53.5t-39 39.5t-55.5 15zM268 -13q-101 0 -162 65.5t-61 180.5q0 77 31.5 134t84 89t114.5 32q52 0 94 -23t67 -65.5t25 -103.5q0 -17 -2 -31.5t-5 -24.5h-319q2 -92 46 -140t116 -48
q48 0 80 19.5t59 50.5l24 -19q-28 -53 -76 -84.5t-116 -31.5zM141 536l-19 25l131 115h34l131 -115l-19 -25l-129 74zM392 635l-25 22l50 88q11 21 23.5 30.5t23.5 9.5q14 0 25 -9t11 -26q0 -9 -5.5 -21t-25.5 -28z" />
    <glyph glyph-name="uni1EC0" unicode="&#x1ec0;" horiz-adv-x="603" 
d="M44 628v41h498l7 -177h-57l-22 127h-235q-1 -64 -1.5 -128t-0.5 -126h147l14 95h46v-236h-46l-13 94h-148q0 -75 0.5 -140.5t1.5 -127.5h255l22 128h57l-7 -178h-518v41l92 11q2 63 2 128v130v49v129.5t-2 128.5zM451 716l-129 74l-129 -74l-19 25l131 115h34l131 -115z
M189 803l-61 31q-30 15 -38 26.5t-8 23.5q0 13 9.5 21.5t22.5 8.5q11 0 23 -6.5t26 -24.5l48 -58z" />
    <glyph glyph-name="uni1EC1" unicode="&#x1ec1;" horiz-adv-x="510" 
d="M269 442q-28 0 -56.5 -16t-49 -51t-26.5 -93h182q36 0 47.5 15t11.5 37q0 29 -14.5 53.5t-39 39.5t-55.5 15zM268 -13q-101 0 -162 65.5t-61 180.5q0 77 31.5 134t84 89t114.5 32q52 0 94 -23t67 -65.5t25 -103.5q0 -17 -2 -31.5t-5 -24.5h-319q2 -92 46 -140t116 -48
q48 0 80 19.5t59 50.5l24 -19q-28 -53 -76 -84.5t-116 -31.5zM81 701q-19 16 -25 28t-6 21q0 17 11 26t24 9q25 0 48 -40l49 -88l-24 -22zM141 536l-19 25l131 115h34l131 -115l-19 -25l-129 74z" />
    <glyph glyph-name="uni1EC2" unicode="&#x1ec2;" horiz-adv-x="603" 
d="M44 628v41h498l7 -177h-57l-22 127h-235q-1 -64 -1.5 -128t-0.5 -126h147l14 95h46v-236h-46l-13 94h-148q0 -75 0.5 -140.5t1.5 -127.5h255l22 128h57l-7 -178h-518v41l92 11q2 63 2 128v130v49v129.5t-2 128.5zM193 716l-19 25l131 115h34l131 -115l-19 -25l-129 74z
M433 817q29 6 41 13.5t12 19.5q0 27 -83 34l10 67q122 -12 122 -87q0 -31 -24.5 -52t-68.5 -26z" />
    <glyph glyph-name="uni1EC3" unicode="&#x1ec3;" horiz-adv-x="510" 
d="M269 442q-28 0 -56.5 -16t-49 -51t-26.5 -93h182q36 0 47.5 15t11.5 37q0 29 -14.5 53.5t-39 39.5t-55.5 15zM268 -13q-101 0 -162 65.5t-61 180.5q0 77 31.5 134t84 89t114.5 32q52 0 94 -23t67 -65.5t25 -103.5q0 -17 -2 -31.5t-5 -24.5h-319q2 -92 46 -140t116 -48
q48 0 80 19.5t59 50.5l24 -19q-28 -53 -76 -84.5t-116 -31.5zM141 536l-19 25l131 115h34l131 -115l-19 -25l-129 74zM385 652q29 7 41 19t12 29q0 22 -19 31.5t-64 16.5l10 67q122 -11 122 -100q0 -38 -24.5 -63.5t-68.5 -30.5z" />
    <glyph glyph-name="uni1EC4" unicode="&#x1ec4;" horiz-adv-x="603" 
d="M44 628v41h498l7 -177h-57l-22 127h-235q-1 -64 -1.5 -128t-0.5 -126h147l14 95h46v-236h-46l-13 94h-148q0 -75 0.5 -140.5t1.5 -127.5h255l22 128h57l-7 -178h-518v41l92 11q2 63 2 128v130v49v129.5t-2 128.5zM190 709l-16 25l131 95h34l131 -95l-16 -25l-132 59z
M159 864q6 41 30 65.5t65 24.5q26 0 42.5 -6.5t32.5 -15.5q17 -9 33.5 -16.5t36.5 -7.5q23 0 38 12t24 34l24 -11q-7 -40 -30 -64.5t-65 -24.5q-25 0 -42.5 6.5t-32.5 15.5q-16 9 -33 16.5t-37 7.5q-22 0 -37.5 -12t-24.5 -34z" />
    <glyph glyph-name="uni1EC5" unicode="&#x1ec5;" horiz-adv-x="510" 
d="M269 442q-28 0 -56.5 -16t-49 -51t-26.5 -93h182q36 0 47.5 15t11.5 37q0 29 -14.5 53.5t-39 39.5t-55.5 15zM268 -13q-101 0 -162 65.5t-61 180.5q0 77 31.5 134t84 89t114.5 32q52 0 94 -23t67 -65.5t25 -103.5q0 -17 -2 -31.5t-5 -24.5h-319q2 -92 46 -140t116 -48
q48 0 80 19.5t59 50.5l24 -19q-28 -53 -76 -84.5t-116 -31.5zM141 536l-19 25l131 114h34l131 -114l-19 -25l-129 73zM107 705q6 41 30 65.5t65 24.5q26 0 42.5 -6.5t32.5 -14.5q17 -10 33.5 -17.5t36.5 -7.5q43 0 62 47l24 -12q-7 -40 -30 -64.5t-65 -24.5q-25 0 -42.5 6.5
t-32.5 15.5q-16 10 -33 17t-37 7q-22 0 -37.5 -12t-24.5 -34z" />
    <glyph glyph-name="uni1EC6" unicode="&#x1ec6;" horiz-adv-x="603" 
d="M44 628v41h498l7 -177h-57l-22 127h-235q-1 -64 -1.5 -128t-0.5 -126h147l14 95h46v-236h-46l-13 94h-148q0 -75 0.5 -140.5t1.5 -127.5h255l22 128h57l-7 -178h-518v41l92 11q2 63 2 128v130v49v129.5t-2 128.5zM358 856l131 -115l-19 -25l-129 74l-129 -74l-19 25
l131 115h34zM334 -203q-28 0 -47.5 18t-19.5 46t19.5 46t47.5 18q29 0 48 -18t19 -46t-19 -46t-48 -18z" />
    <glyph glyph-name="uni1EC7" unicode="&#x1ec7;" horiz-adv-x="510" 
d="M269 442q-28 0 -56.5 -16t-49 -51t-26.5 -93h182q36 0 47.5 15t11.5 37q0 29 -14.5 53.5t-39 39.5t-55.5 15zM268 -13q-101 0 -162 65.5t-61 180.5q0 77 31.5 134t84 89t114.5 32q52 0 94 -23t67 -65.5t25 -103.5q0 -17 -2 -31.5t-5 -24.5h-319q2 -92 46 -140t116 -48
q48 0 80 19.5t59 50.5l24 -19q-28 -53 -76 -84.5t-116 -31.5zM397 546l-126 114l-126 -114l-23 22l132 176h34l132 -176zM268 -203q-28 0 -47.5 18t-19.5 46t19.5 46t47.5 18q29 0 48 -18t19 -46t-19 -46t-48 -18z" />
    <glyph glyph-name="uni1EC8" unicode="&#x1ec8;" horiz-adv-x="371" 
d="M44 628v41h283v-41l-92 -11q-1 -63 -1.5 -128t-0.5 -130v-49q0 -64 0.5 -128.5t1.5 -129.5l92 -11v-41h-283v41l92 11q2 63 2 128v130v49v129.5t-2 128.5zM166 717l-9 31q29 6 41 13.5t12 19.5q0 27 -83 34l10 67q122 -11 122 -87q0 -31 -24.5 -51.5t-68.5 -26.5z" />
    <glyph glyph-name="uni1EC9" unicode="&#x1ec9;" horiz-adv-x="298" 
d="M35 0v36l74 14q1 38 1.5 82t0.5 78v47q0 41 -0.5 68.5t-2.5 57.5l-79 9v35l155 61l15 -10l-3 -136v-132q0 -33 0.5 -77.5t1.5 -82.5l69 -14v-36h-232zM130 553l-9 31q29 6 41 18.5t12 29.5q0 21 -19 31t-64 17l10 67q122 -11 122 -100q0 -38 -24.5 -63.5t-68.5 -30.5z
" />
    <glyph glyph-name="uni1ECA" unicode="&#x1eca;" horiz-adv-x="371" 
d="M44 628v41h283v-41l-92 -11q-1 -63 -1.5 -128t-0.5 -130v-49q0 -64 0.5 -128.5t1.5 -129.5l92 -11v-41h-283v41l92 11q2 63 2 128v130v49v129.5t-2 128.5zM186 -203q-28 0 -47.5 18t-19.5 46t19.5 46t47.5 18q29 0 48 -18t19 -46t-19 -46t-48 -18z" />
    <glyph glyph-name="uni1ECB" unicode="&#x1ecb;" horiz-adv-x="298" 
d="M35 0v36l75 14q1 38 1.5 82.5t0.5 77.5v47q0 41 -0.5 68.5t-2.5 57.5l-80 9v35l154 61l15 -10l-3 -136v-132q0 -33 0.5 -77.5t1.5 -82.5l70 -14v-36h-232zM153 598q-28 0 -47.5 18t-19.5 46q0 29 19.5 46.5t47.5 17.5t47.5 -17.5t19.5 -46.5q0 -28 -19.5 -46t-47.5 -18z
M153 -203q-28 0 -47.5 18t-19.5 46t19.5 46t47.5 18q29 0 48 -18t19 -46t-19 -46t-48 -18z" />
    <glyph glyph-name="uni1ECC" unicode="&#x1ecc;" horiz-adv-x="707" 
d="M354 -15q-58 0 -113 22.5t-99 66.5t-69.5 109.5t-25.5 151.5q0 82 26 147t69.5 110t98.5 68.5t113 23.5t112.5 -22.5t98 -66.5t69.5 -109t26 -151q0 -82 -25.5 -147t-69 -110.5t-98.5 -69t-113 -23.5zM354 35q52 0 89.5 25.5t61 68t34.5 96t11 110.5q0 56 -11 109.5
t-34.5 96.5t-61 68t-89.5 25t-89.5 -25t-61.5 -68t-35.5 -96.5t-11.5 -109.5q0 -57 11.5 -110.5t35.5 -96t61.5 -68t89.5 -25.5zM353 -203q-28 0 -47.5 18t-19.5 46t19.5 46t47.5 18q29 0 48 -18t19 -46t-19 -46t-48 -18z" />
    <glyph glyph-name="uni1ECD" unicode="&#x1ecd;" horiz-adv-x="549" 
d="M274 -13q-58 0 -110.5 27.5t-85.5 83t-33 137.5q0 83 33 139.5t85.5 85t110.5 28.5t110.5 -28.5t86 -85t33.5 -139.5q0 -82 -33.5 -137.5t-86 -83t-110.5 -27.5zM274 32q65 0 100 51.5t35 151.5q0 101 -35 154t-100 53t-99.5 -53t-34.5 -154q0 -100 34.5 -151.5
t99.5 -51.5zM275 -203q-28 0 -47.5 18t-19.5 46t19.5 46t47.5 18q29 0 48 -18t19 -46t-19 -46t-48 -18z" />
    <glyph glyph-name="uni1ECE" unicode="&#x1ece;" horiz-adv-x="707" 
d="M354 -15q-58 0 -113 22.5t-99 66.5t-69.5 109.5t-25.5 151.5q0 82 26 147t69.5 110t98.5 68.5t113 23.5t112.5 -22.5t98 -66.5t69.5 -109t26 -151q0 -82 -25.5 -147t-69 -110.5t-98.5 -69t-113 -23.5zM354 35q52 0 89.5 25.5t61 68t34.5 96t11 110.5q0 56 -11 109.5
t-34.5 96.5t-61 68t-89.5 25t-89.5 -25t-61.5 -68t-35.5 -96.5t-11.5 -109.5q0 -57 11.5 -110.5t35.5 -96t61.5 -68t89.5 -25.5zM334 717l-9 31q29 6 41 13.5t12 19.5q0 27 -83 34l10 67q122 -11 122 -87q0 -31 -24.5 -51.5t-68.5 -26.5z" />
    <glyph glyph-name="uni1ECF" unicode="&#x1ecf;" horiz-adv-x="549" 
d="M274 -13q-58 0 -110.5 27.5t-85.5 83t-33 137.5q0 83 33 139.5t85.5 85t110.5 28.5t110.5 -28.5t86 -85t33.5 -139.5q0 -82 -33.5 -137.5t-86 -83t-110.5 -27.5zM274 32q65 0 100 51.5t35 151.5q0 101 -35 154t-100 53t-99.5 -53t-34.5 -154q0 -100 34.5 -151.5
t99.5 -51.5zM262 553l-9 31q29 6 41 18.5t12 29.5q0 21 -19 31t-64 17l10 67q122 -11 122 -100q0 -38 -24.5 -63.5t-68.5 -30.5z" />
    <glyph glyph-name="uni1ED0" unicode="&#x1ed0;" horiz-adv-x="707" 
d="M354 -15q-58 0 -113 22.5t-99 66.5t-69.5 109.5t-25.5 151.5q0 82 26 147t69.5 110t98.5 68.5t113 23.5t112.5 -22.5t98 -66.5t69.5 -109t26 -151q0 -82 -25.5 -147t-69 -110.5t-98.5 -69t-113 -23.5zM354 35q52 0 89.5 25.5t61 68t34.5 96t11 110.5q0 56 -11 109.5
t-34.5 96.5t-61 68t-89.5 25t-89.5 -25t-61.5 -68t-35.5 -96.5t-11.5 -109.5q0 -57 11.5 -110.5t35.5 -96t61.5 -68t89.5 -25.5zM233 716l-19 25l131 115h34l131 -115l-19 -25l-129 74zM485 801l-21 22l48 60q13 17 25.5 24t22.5 7q14 0 23 -8.5t9 -21.5q0 -12 -8 -23
t-38 -27z" />
    <glyph glyph-name="uni1ED1" unicode="&#x1ed1;" horiz-adv-x="549" 
d="M274 -13q-58 0 -110.5 27.5t-85.5 83t-33 137.5q0 83 33 139.5t85.5 85t110.5 28.5t110.5 -28.5t86 -85t33.5 -139.5q0 -82 -33.5 -137.5t-86 -83t-110.5 -27.5zM274 32q65 0 100 51.5t35 151.5q0 101 -35 154t-100 53t-99.5 -53t-34.5 -154q0 -100 34.5 -151.5
t99.5 -51.5zM145 536l-19 25l131 115h34l131 -115l-19 -25l-129 74zM396 635l-25 22l50 88q11 21 23.5 30.5t23.5 9.5q14 0 25 -9t11 -26q0 -9 -5.5 -21t-25.5 -28z" />
    <glyph glyph-name="uni1ED2" unicode="&#x1ed2;" horiz-adv-x="707" 
d="M354 -15q-58 0 -113 22.5t-99 66.5t-69.5 109.5t-25.5 151.5q0 82 26 147t69.5 110t98.5 68.5t113 23.5t112.5 -22.5t98 -66.5t69.5 -109t26 -151q0 -82 -25.5 -147t-69 -110.5t-98.5 -69t-113 -23.5zM354 35q52 0 89.5 25.5t61 68t34.5 96t11 110.5q0 56 -11 109.5
t-34.5 96.5t-61 68t-89.5 25t-89.5 -25t-61.5 -68t-35.5 -96.5t-11.5 -109.5q0 -57 11.5 -110.5t35.5 -96t61.5 -68t89.5 -25.5zM482 716l-129 74l-129 -74l-19 25l131 115h34l131 -115zM220 803l-61 31q-30 15 -38 26.5t-8 23.5q0 13 9.5 21.5t22.5 8.5q11 0 23 -6.5
t26 -24.5l48 -58z" />
    <glyph glyph-name="uni1ED3" unicode="&#x1ed3;" horiz-adv-x="549" 
d="M274 -13q-58 0 -110.5 27.5t-85.5 83t-33 137.5q0 83 33 139.5t85.5 85t110.5 28.5t110.5 -28.5t86 -85t33.5 -139.5q0 -82 -33.5 -137.5t-86 -83t-110.5 -27.5zM274 32q65 0 100 51.5t35 151.5q0 101 -35 154t-100 53t-99.5 -53t-34.5 -154q0 -100 34.5 -151.5
t99.5 -51.5zM85 701q-19 16 -25 28t-6 21q0 17 11 26t24 9q25 0 48 -40l49 -88l-24 -22zM145 536l-19 25l131 115h34l131 -115l-19 -25l-129 74z" />
    <glyph glyph-name="uni1ED4" unicode="&#x1ed4;" horiz-adv-x="707" 
d="M354 -15q-58 0 -113 22.5t-99 66.5t-69.5 109.5t-25.5 151.5q0 82 26 147t69.5 110t98.5 68.5t113 23.5t112.5 -22.5t98 -66.5t69.5 -109t26 -151q0 -82 -25.5 -147t-69 -110.5t-98.5 -69t-113 -23.5zM354 35q52 0 89.5 25.5t61 68t34.5 96t11 110.5q0 56 -11 109.5
t-34.5 96.5t-61 68t-89.5 25t-89.5 -25t-61.5 -68t-35.5 -96.5t-11.5 -109.5q0 -57 11.5 -110.5t35.5 -96t61.5 -68t89.5 -25.5zM224 716l-19 25l131 115h34l131 -115l-19 -25l-129 74zM464 817q29 6 41 13.5t12 19.5q0 27 -83 34l10 67q122 -12 122 -87q0 -31 -24.5 -52
t-68.5 -26z" />
    <glyph glyph-name="uni1ED5" unicode="&#x1ed5;" horiz-adv-x="549" 
d="M274 -13q-58 0 -110.5 27.5t-85.5 83t-33 137.5q0 83 33 139.5t85.5 85t110.5 28.5t110.5 -28.5t86 -85t33.5 -139.5q0 -82 -33.5 -137.5t-86 -83t-110.5 -27.5zM274 32q65 0 100 51.5t35 151.5q0 101 -35 154t-100 53t-99.5 -53t-34.5 -154q0 -100 34.5 -151.5
t99.5 -51.5zM145 536l-19 25l131 115h34l131 -115l-19 -25l-129 74zM389 652q29 7 41 19t12 29q0 22 -19 31.5t-64 16.5l10 67q122 -11 122 -100q0 -38 -24.5 -63.5t-68.5 -30.5z" />
    <glyph glyph-name="uni1ED6" unicode="&#x1ed6;" horiz-adv-x="707" 
d="M354 -15q-58 0 -113 22.5t-99 66.5t-69.5 109.5t-25.5 151.5q0 82 26 147t69.5 110t98.5 68.5t113 23.5t112.5 -22.5t98 -66.5t69.5 -109t26 -151q0 -82 -25.5 -147t-69 -110.5t-98.5 -69t-113 -23.5zM354 35q52 0 89.5 25.5t61 68t34.5 96t11 110.5q0 56 -11 109.5
t-34.5 96.5t-61 68t-89.5 25t-89.5 -25t-61.5 -68t-35.5 -96.5t-11.5 -109.5q0 -57 11.5 -110.5t35.5 -96t61.5 -68t89.5 -25.5zM221 709l-16 25l131 95h34l131 -95l-16 -25l-132 59zM190 864q6 41 30 65.5t65 24.5q26 0 42.5 -6.5t32.5 -15.5q17 -9 33.5 -16.5t36.5 -7.5
q23 0 38 12t24 34l24 -11q-7 -40 -30 -64.5t-65 -24.5q-25 0 -42.5 6.5t-32.5 15.5q-16 9 -33 16.5t-37 7.5q-22 0 -37.5 -12t-24.5 -34z" />
    <glyph glyph-name="uni1ED7" unicode="&#x1ed7;" horiz-adv-x="549" 
d="M274 -13q-58 0 -110.5 27.5t-85.5 83t-33 137.5q0 83 33 139.5t85.5 85t110.5 28.5t110.5 -28.5t86 -85t33.5 -139.5q0 -82 -33.5 -137.5t-86 -83t-110.5 -27.5zM274 32q65 0 100 51.5t35 151.5q0 101 -35 154t-100 53t-99.5 -53t-34.5 -154q0 -100 34.5 -151.5
t99.5 -51.5zM145 536l-19 25l131 114h34l131 -114l-19 -25l-129 73zM111 705q6 41 30 65.5t65 24.5q26 0 42.5 -6.5t32.5 -14.5q17 -10 33.5 -17.5t36.5 -7.5q43 0 62 47l24 -12q-7 -40 -30 -64.5t-65 -24.5q-25 0 -42.5 6.5t-32.5 15.5q-16 10 -33 17t-37 7
q-22 0 -37.5 -12t-24.5 -34z" />
    <glyph glyph-name="uni1ED8" unicode="&#x1ed8;" horiz-adv-x="707" 
d="M354 -15q-58 0 -113 22.5t-99 66.5t-69.5 109.5t-25.5 151.5q0 82 26 147t69.5 110t98.5 68.5t113 23.5t112.5 -22.5t98 -66.5t69.5 -109t26 -151q0 -82 -25.5 -147t-69 -110.5t-98.5 -69t-113 -23.5zM354 35q52 0 89.5 25.5t61 68t34.5 96t11 110.5q0 56 -11 109.5
t-34.5 96.5t-61 68t-89.5 25t-89.5 -25t-61.5 -68t-35.5 -96.5t-11.5 -109.5q0 -57 11.5 -110.5t35.5 -96t61.5 -68t89.5 -25.5zM371 856l131 -115l-19 -25l-129 74l-129 -74l-19 25l131 115h34zM353 -203q-28 0 -47.5 18t-19.5 46t19.5 46t47.5 18q29 0 48 -18t19 -46
t-19 -46t-48 -18z" />
    <glyph glyph-name="uni1ED9" unicode="&#x1ed9;" horiz-adv-x="549" 
d="M274 -13q-58 0 -110.5 27.5t-85.5 83t-33 137.5q0 83 33 139.5t85.5 85t110.5 28.5t110.5 -28.5t86 -85t33.5 -139.5q0 -82 -33.5 -137.5t-86 -83t-110.5 -27.5zM274 32q65 0 100 51.5t35 151.5q0 101 -35 154t-100 53t-99.5 -53t-34.5 -154q0 -100 34.5 -151.5
t99.5 -51.5zM400 546l-126 114l-126 -114l-23 22l132 176h34l132 -176zM275 -203q-28 0 -47.5 18t-19.5 46t19.5 46t47.5 18q29 0 48 -18t19 -46t-19 -46t-48 -18z" />
    <glyph glyph-name="uni1EDA" unicode="&#x1eda;" horiz-adv-x="707" 
d="M354 -15q-58 0 -113 22.5t-99 66.5t-69.5 109.5t-25.5 151.5q0 82 26 147t69.5 110t98.5 68.5t113 23.5t112.5 -22.5t98 -66.5t69.5 -109t26 -151q0 -82 -25.5 -147t-69 -110.5t-98.5 -69t-113 -23.5zM354 35q52 0 89.5 25.5t61 68t34.5 96t11 110.5q0 56 -11 109.5
t-34.5 96.5t-61 68t-89.5 25t-89.5 -25t-61.5 -68t-35.5 -96.5t-11.5 -109.5q0 -57 11.5 -110.5t35.5 -96t61.5 -68t89.5 -25.5zM510 575l-4 27q46 8 68 27t22 54q0 23 -12.5 40t-12.5 38q0 12 10.5 24t28.5 12q8 0 17 -2t19 -10q14 -30 14 -55q0 -67 -43 -108t-107 -47z
M286 745q46 49 94 94q21 21 35 29.5t27 8.5q16 0 27 -9.5t11 -24.5q0 -13 -10.5 -26t-39.5 -29q-31 -17 -62.5 -34t-63.5 -34z" />
    <glyph glyph-name="uni1EDB" unicode="&#x1edb;" horiz-adv-x="549" 
d="M274 -13q-58 0 -110.5 27.5t-85.5 83t-33 137.5q0 83 33 139.5t85.5 85t110.5 28.5t110.5 -28.5t86 -85t33.5 -139.5q0 -82 -33.5 -137.5t-86 -83t-110.5 -27.5zM274 32q65 0 100 51.5t35 151.5q0 101 -35 154t-100 53t-99.5 -53t-34.5 -154q0 -100 34.5 -151.5
t99.5 -51.5zM399 378l-4 27q46 8 68 27t22 54q0 23 -12.5 40t-12.5 38q0 12 10.5 24t28.5 12q8 0 17 -2t19 -10q14 -30 14 -55q0 -67 -43 -108t-107 -47zM226 576q42 71 89 141q14 23 27.5 32t26.5 9q14 0 26 -9t12 -29q0 -10 -6.5 -22.5t-27.5 -32.5q-31 -28 -60.5 -54.5
t-60.5 -53.5z" />
    <glyph glyph-name="uni1EDC" unicode="&#x1edc;" horiz-adv-x="707" 
d="M354 -15q-58 0 -113 22.5t-99 66.5t-69.5 109.5t-25.5 151.5q0 82 26 147t69.5 110t98.5 68.5t113 23.5t112.5 -22.5t98 -66.5t69.5 -109t26 -151q0 -82 -25.5 -147t-69 -110.5t-98.5 -69t-113 -23.5zM354 35q52 0 89.5 25.5t61 68t34.5 96t11 110.5q0 56 -11 109.5
t-34.5 96.5t-61 68t-89.5 25t-89.5 -25t-61.5 -68t-35.5 -96.5t-11.5 -109.5q0 -57 11.5 -110.5t35.5 -96t61.5 -68t89.5 -25.5zM510 575l-4 27q46 8 68 27t22 54q0 23 -12.5 40t-12.5 38q0 12 10.5 24t28.5 12q8 0 17 -2t19 -10q14 -30 14 -55q0 -67 -43 -108t-107 -47z
M420 745l-18 -25q-32 17 -63.5 34t-62.5 33q-28 16 -39 29.5t-11 26.5q0 15 11 24.5t27 9.5q13 0 27 -8.5t35 -29.5q49 -46 94 -94z" />
    </font>
</defs>
</svg>
